<?xml version="1.0" standalone="no"?>
<!DOCTYPE svg PUBLIC "-//W3C//DTD SVG 1.1//EN" "http://www.w3.org/Graphics/SVG/1.1/DTD/svg11.dtd" >
<svg xmlns="http://www.w3.org/2000/svg">
<metadata></metadata>
<defs>
<font id="glyphicons_halflingsregular" horiz-adv-x="1200" >
<font-face units-per-em="1200" ascent="960" descent="-240" />
<missing-glyph horiz-adv-x="500" />
<glyph horiz-adv-x="0" />
<glyph horiz-adv-x="400" />
<glyph unicode=" " />
<glyph unicode="*" d="M600 1100q15 0 34 -1.5t30 -3.5l11 -1q10 -2 17.5 -10.5t7.5 -18.5v-224l158 158q7 7 18 8t19 -6l106 -106q7 -8 6 -19t-8 -18l-158 -158h224q10 0 18.5 -7.5t10.5 -17.5q6 -41 6 -75q0 -15 -1.5 -34t-3.5 -30l-1 -11q-2 -10 -10.5 -17.5t-18.5 -7.5h-224l158 -158 q7 -7 8 -18t-6 -19l-106 -106q-8 -7 -19 -6t-18 8l-158 158v-224q0 -10 -7.5 -18.5t-17.5 -10.5q-41 -6 -75 -6q-15 0 -34 1.5t-30 3.5l-11 1q-10 2 -17.5 10.5t-7.5 18.5v224l-158 -158q-7 -7 -18 -8t-19 6l-106 106q-7 8 -6 19t8 18l158 158h-224q-10 0 -18.5 7.5 t-10.5 17.5q-6 41 -6 75q0 15 1.5 34t3.5 30l1 11q2 10 10.5 17.5t18.5 7.5h224l-158 158q-7 7 -8 18t6 19l106 106q8 7 19 6t18 -8l158 -158v224q0 10 7.5 18.5t17.5 10.5q41 6 75 6z" />
<glyph unicode="+" d="M450 1100h200q21 0 35.5 -14.5t14.5 -35.5v-350h350q21 0 35.5 -14.5t14.5 -35.5v-200q0 -21 -14.5 -35.5t016EDA0A0C" />
<glyph unicode="&#xa0;" />
<glyph unicode="&#xa5;" d="M825 1100h250q10 0 12.5 -5t-5.5 -13l-364 -364q-6 -6 -11 -18h268q10 0 13 -6t-3 -14l-120 -160q-6 -8 -18 -14t-22 -6h-125v-100h275q10 0 13 -6t-3 -14l-120 -160q-6 -8 -18 -14t-22 -6h-125v-174q0 -11 -7.5 -18.5t-18.5 -7.5h-148q-11 0 -18.5 7.5t-7.5 18.5v174 h-275q-10 0 -13 6t3 14l120 160q6 8 18 14t22 6h125v100h-275q-10 0 -13 6t3 14l120 160q6 8 18 14t22 6h118q-5 12 -11 18l-364 364q-8 8 -5.5 13t12.5 5h250q25 0 43 -18l164 -164q8 -8 18 -8t18 8l164 164q18 18 43 18z" />
<glyph unicode="&#x2000;" horiz-adv-x="650" />
<glyph unicode="&#x2001;" horiz-adv-x="1300" />
<glyph unicode="&#x2002;" horiz-adv-x="650" />
<glyph unicode="&#x2003;" horiz-adv-x="1300" />
<glyph unicode="&#x2004;" horiz-adv-x="433" />
<glyph unicode="&#x2005;" horiz-adv-x="325" />
<glyph unicode="&#x2006;" horiz-adv-x="216" />
<glyph unicode="&#x2007;" horiz-adv-x="216" />
<glyph unicode="&#x2008;" horiz-adv-x="162" />
<glyph unicode="&#x2009;" horiz-adv-x="260" />
<glyph unicode="&#x200a;" horiz-adv-x="72" />
<glyph unicode="&#x202f;" horiz-adv-x="260" />
<glyph unicode="&#x205f;" horiz-adv-x="325" />
<glyph unicode="&#x20ac;" d="M744 1198q242 0 354 -189q60 -104 66 -209h-181q0 45 -17.5 82.5t-43.5 61.5t-58 40.5t-60.5 24t-51.5 7.5q-19 0 -40.5 -5.5t-49.5 -20.5t-53 -38t-49 -62.5t-39 -89.5h379l-100 -100h-300q-6 -50 -6 -100h406l-100 -100h-300q9 -74 33 -132t52.5 -91t61.5 -54.5t59 -29 t47 -7.5q22 0 50.5 7.5t60.5 24.5t58 41t43.5 61t17.5 80h174q-30 -171 -128 -278q-107 -117 -274 -117q-206 0 -324 158q-36 48 -69 133t-45 204h-217l100 100h112q1 47 6 100h-218l100 100h134q20 87 51 153.5t62 103.5q117 141 297 141z" />
<glyph unicode="&#x20bd;" d="M428 1200h350q67 0 120 -13t86 -31t57 -49.5t35 -56.5t17 -64.5t6.5 -60.5t0.5 -57v-16.5v-16.5q0 -36 -0.5 -57t-6.5 -61t-17 -65t-35 -57t-57 -50.5t-86 -31.5t-120 -13h-178l-2 -100h288q10 0 13 -6t-3 -14l-120 -160q-6 -8 -18 -14t-22 -6h-138v-175q0 -11 -5.5 -18 t-15.5 -7h-149q-10 0 -17.5 7.5t-7.5 17.5v175h-267q-10 0 -13 6t3 14l120 160q6 8 18 14t22 6h117v100h-267q-10 0 -13 6t3 14l120 160q6 8 18 14t22 6h117v475q0 10 7.5 17.5t17.5 7.5zM600 1000v-300h203q64 0 86.5 33t22.5 119q0 84 -22.5 116t-86.5 32h-203z" />
<glyph unicode="&#x2212;" d="M250 700h800q21 0 35.5 -14.5t14.5 -35.5v-200q0 -21 -14.5 -35.5t-35.5 -14.5h-800q-21 0 -35.5 14.5t-14.5 35.5v200q0 21 14.5 35.5t35.5 14.5z" />
<glyph unicode="&#x231b;" d="M1000 1200v-150q0 -21 -14.5 -35.5t-35.5 -14.5h-50v-100q0 -91 -49.5 -165.5t-130.5 -109.5q81 -35 130.5 -109.5t49.5 -165.5v-150h50q21 0 35.5 -14.5t14.5 -35.5v-150h-800v150q0 21 14.5 35.5t35.5 14.5h50v150q0 91 49.5 165.5t130.5 109.5q-81 35 -130.5 109.5 t-49.5 165.5v100h-50q-21 0 -35.5 14.5t-14.5 35.5v150h800zM400 1000v-100q0 -60 32.5 -109.5t87.5 -73.5q28 -12 44 -37t16 -55t-16 -55t-44 -37q-55 -24 -87.5 -73.5t-32.5 -109.5v-150h400v150q0 60 -32.5 109.5t-87.5 73.5q-28 12 -44 37t-16 55t16 55t44 37 q55 24 87.5 73.5t32.5 109.5v100h-400z" />
<glyph unicode="&#x25fc;" horiz-adv-x="500" d="M0 0z" />
<glyph unicode="&#x2601;" d="M503 1089q110 0 200.5 -59.5t134.5 -156.5q44 14 90 14q120 0 205 -86.5t85 -206.5q0 -121 -85 -207.5t-2005B0CFBA9D" />
<glyph unicode="&#x26fa;" d="M774 1193.5q16 -9.5 20.5 -27t-5.5 -33.5l-136 -187l467 -746h30q20 0 35 -18.5t15 -39.5v-42h-1200v42q0 21 15 39.5t35 18.5h30l468 746l-135 183q-10 16 -5.5 34t20.5 28t34 5.5t28 -20.5l111 -148l112 150q9 16 27 20.5t34 -5zM600 200h377l-182 112l-195 534v-646z " />
<glyph unicode="&#x2709;" d="M25 1100h1150q10 0 12.5 -5t-5.5 -13l-564 -567q-8 -8 -18 -8t-18 8l-564 567q-8 8 -5.5 13t12.5 5zM18 882l264 -264q8 -8 8 -18t-8 -18l-264 -264q-8 -8 -13 -5.5t-5 12.5v550q0 10 5 12.5t13 -5.5zM918 618l264 264q8 8 13 5.5t5 -12.5v-550q0 -10 -5 -12.5t-13 5.5 l-264 264q-8 8 -8 18t8 18zM818 482l364 -364q8 -8 5.5 -13t-12.5 -5h-1150q-10 0 -12.5 5t5.5 13l364 364q8 8 18 8t18 -8l164 -164q8 -8 18 -8t18 8l164 164q8 8 18 8t18 -8z" />
<glyph unicode="&#x270f;" d="M1011 1210q19 0 33 -13l153 -153q13 -14 13 -33t-13 -33l-99 -92l-214 214l95 96q13 14 32 14zM1013 800l-615 -614l-214 214l614 614zM317 96l-333 -112l110 335z" />
<glyph unicode="&#xe001;" d="M700 650v-550h250q21 0 35.5 -14.5t14.5 -35.5v-50h-800v50q0 21 14.5 35.5t35.5 14.5h250v550l-500 550h1200z" />
<glyph unicode="&#xe002;" d="M368 1017l645 163q39 15 63 0t24 -49v-831q0 -55 -41.5 -95.5t-111.5 -63.5q-79 -25 -147 -4.5t-86 75t25.0916300A98" />
<glyph unicode="&#xe003;" d="M500 1191q100 0 191 -39t156.5 -104.5t104.5 -156.5t39 -191l-1 -2l1 -5q0 -141 -78 -262l275 -274q23 -26 22.5 -44.5t-22.5 -42.5l-59 -58q-26 -20 -46.5 -20t-39.5 20l-275 274q-119 -77 -261 -77l-5 1l-2 -1q-100 0 -191 39t-156.5 104.5t-104.5 156.5t-39 191 t39 191t104.5 156.5t156.5 104.5t191 39zM500 1022q-88 0 -162 -43t-117 -117t-43 -162t43 -162t117 -117t162 -43t162 43t117 117t43 162t-43 162t-117 117t-162 43z" />
<glyph unicode="&#xe005;" d="M649 949q48 68 109.5 104t121.5 38.5t118.5 -20t102.5 -64t71 -100.5t27 -123q0 -57 -33.5 -117.5t-94 -124.5t-126.5 -127.5t-150 -152.5t-146 -174q-62 85 -145.5 174t-150 152.5t-126.5 127.5t-93.5 124.5t-33.5 117.5q0 64 28 123t73 100.5t104 64t119 20 t120.5 -38.5t104.5 -104z" />
<glyph unicode="&#xe006;" d="M407 800l131 353q7 19 17.5 19t17.5 -19l129 -353h421q21 0 24 -8.5t-14 -20.5l-342 -249l130 -401q7 -20 -0.5 -25.5t-24.5 6.5l-343 246l-342 -247q-17 -12 -24.5 -6.5t-0.5 25.5l130 400l-347 251q-17 12 -14 20.5t23 8.5h429z" />
<glyph unicode="&#xe007;" d="M407 800l131 353q7 19 17.5 19t17.5 -19l129 -353h421q21 0 24 -8.5t-14 -20.5l-342 -249l130 -401q7 -20 -0.5 -25.5t-24.5 6.5l-343 246l-342 -247q-17 -12 -24.5 -6.5t-0.5 25.5l130 400l-347 251q-17 12 -14 20.5t23 8.5h429zM477 700h-240l197 -142l-74 -226 l193 139l195 -140l-74 229l192 140h-234l-78 211z" />
<glyph unicode="&#xe008;" d="M600 1200q124 0 212 -88t88 -212v-250q0 -46 -31 -98t-69 -52v-75q0 -10 6 -21.5t15 -17.5l358 -230q9 -5 15 -16.5t6 -21.5v-93q0 -10 -7.5 -17.5t-17.5 -7.5h-1150q-10 0 -17.5 7.5t-7.5 17.5v93q0 10 6 21.5t15 16.5l358 230q9 6 15 17.5t6 21.5v75q-38 0 -69 52 t-31 98v250q0 124 88 212t212 88z" />
<glyph unicode="&#xe009;" d="M25 1100h1150q10 0 17.5 -7.5t7.5 -17.5v-1050q0 -10 -7.5 -17.5t-17.5 -7.5h-1150q-10 0 -17.5 7.5t-7.5 17.5v1050q0 10 7.5 17.5t17.5 7.5zM100 1000v-100h100v100h-100zM875 1000h-550q-10 0 -17.5 -7.5t-7.5 -17.5v-350q0 -10 7.5 -17.5t17.5 -7.5h550 q10 0 17.5 7.5t7.5 17.5v350q0 10 -7.5 17.5t-17.5 7.5zM1000 1000v-100h100v100h-100zM100 800v-100h100v100h-100zM1000 800v-100h100v100h-100zM100 600v-100h100v100h-100zM1000 600v-100h100v100h-100zM875 500h-550q-10 0 -17.5 -7.5t-7.5 -17.5v-350q0 -10 7.5 -17.5 t17.5 -7.5h550q10 0 17.5 7.5t7.5 17.5v350q0 10 -7.5 17.5t-17.5 7.5zM100 400v-100h100v100h-100zM1000 400v-100h100v100h-100zM100 200v-100h100v100h-100zM1000 200v-100h100v100h-100z" />
<glyph unicode="&#xe010;" d="M50 1100h400q21 0 35.5 -14.5t14.5 -35.5v-400q0 -21 -14.5 -35.5t-35.5 -14.5h-400q-21 0 -35.5 14.5t-140B9824FAAC" />
<glyph unicode="&#xe011;" d="M50 1100h200q21 0 35.5 -14.5t14.5 -35.5v-200q0 -21 -14.5 -35.5t-35.5 -14.5h-200q-21 0 -35.5 14.5t-1405B7FBFAF4" />
<glyph unicode="&#xe012;" d="M50 1100h200q21 0 35.5 -14.5t14.5 -35.5v-200q0 -21 -14.5 -35.5t-35.5 -14.5h-200q-21 0 -35.5 14.5t-140B2E872A32" />
<glyph unicode="&#xe013;" d="M465 477l571 571q8 8 18 8t17 -8l177 -177q8 -7 8 -17t-8 -18l-783 -784q-7 -8 -17.5 -8t-17.5 8l-384 384q-8 8 -8 18t8 17l177 177q7 8 17 8t18 -8l171 -171q7 -7 18 -7t18 7z" />
<glyph unicode="&#xe014;" d="M904 1083l178 -179q8 -8 8 -18.5t-8 -17.5l-267 -268l267 -268q8 -7 8 -17.5t-8 -18.5l-178 -178q-8 -8 -10357A30A1C" />
<glyph unicode="&#xe015;" d="M507 1177q98 0 187.5 -38.5t154.5 -103.5t103.5 -154.5t38.5 -187.5q0 -141 -78 -262l300 -299q8 -8 8 -1808B4EBEA5F" />
<glyph unicode="&#xe016;" d="M507 1177q98 0 187.5 -38.5t154.5 -103.5t103.5 -154.5t38.5 -187.5q0 -141 -78 -262l300 -299q8 -8 8 -180F87DA4A13" />
<glyph unicode="&#xe017;" d="M550 1200h100q21 0 35.5 -14.5t14.5 -35.5v-400q0 -21 -14.5 -35.5t-35.5 -14.5h-100q-21 0 -35.5 14.5t-14.5 35.5v400q0 21 14.5 35.5t35.5 14.5zM800 975v166q167 -62 272 -209.5t105 -331.5q0 -117 -45.5 -224t-123 -184.5t-184.5 -123t-224 -45.5t-224 45.5 t-184.5 123t-123 184.5t-45.5 224q0 184 105 331.5t272 209.5v-166q-103 -55 -165 -155t-62 -220q0 -116 57 -214.5t155.5 -155.5t214.5 -57t214.5 57t155.5 155.5t57 214.5q0 120 -62 220t-165 155z" />
<glyph unicode="&#xe018;" d="M1025 1200h150q10 0 17.5 -7.5t7.5 -17.5v-1150q0 -10 -7.5 -17.5t-17.5 -7.5h-150q-10 0 -17.5 7.5t-7.5 01ED757ACC" />
<glyph unicode="&#xe019;" d="M600 1174q33 0 74 -5l38 -152l5 -1q49 -14 94 -39l5 -2l134 80q61 -48 104 -105l-80 -134l3 -5q25 -44 39 -93l1 -6l152 -38q5 -43 5 -73q0 -34 -5 -74l-152 -38l-1 -6q-15 -49 -39 -93l-3 -5l80 -134q-48 -61 -104 -105l-134 81l-5 -3q-44 -25 -94 -39l-5 -2l-38 -151 q-43 -5 -74 -5q-33 0 -74 5l-38 151l-5 2q-49 14 -94 39l-5 3l-134 -81q-60 48 -104 105l80 134l-3 5q-25 45 -38 93l-2 6l-151 38q-6 42 -6 74q0 33 6 73l151 38l2 6q13 48 38 93l3 5l-80 134q47 61 105 105l133 -80l5 2q45 25 94 39l5 1l38 152q43 5 74 5zM600 815 q-89 0 -152 -63t-63 -151.5t63 -151.5t152 -63t152 63t63 151.5t-63 151.5t-152 63z" />
<glyph unicode="&#xe020;" d="M500 1300h300q41 0 70.5 -29.5t29.5 -70.5v-100h275q10 0 17.5 -7.5t7.5 -17.5v-75h-1100v75q0 10 7.5 17.5t17.5 7.5h275v100q0 41 29.5 70.5t70.5 29.5zM500 1200v-100h300v100h-300zM1100 900v-800q0 -41 -29.5 -70.5t-70.5 -29.5h-700q-41 0 -70.5 29.5t-29.5 70.5 v800h900zM300 800v-700h100v700h-100zM500 800v-700h100v700h-100zM700 800v-700h100v700h-100zM900 800v-700h100v700h-100z" />
<glyph unicode="&#xe021;" d="M18 618l620 608q8 7 18.5 7t17.5 -7l608 -608q8 -8 5.5 -13t-12.5 -5h-175v-575q0 -10 -7.5 -17.5t-17.5 -04510F3AAA" />
<glyph unicode="&#xe022;" d="M600 1200v-400q0 -41 29.5 -70.5t70.5 -29.5h300v-650q0 -21 -14.5 -35.5t-35.5 -14.5h-800q-21 0 -35.5 14.5t-14.5 35.5v1100q0 21 14.5 35.5t35.5 14.5h450zM1000 800h-250q-21 0 -35.5 14.5t-14.5 35.5v250z" />
<glyph unicode="&#xe023;" d="M600 1177q117 0 224 -45.5t184.5 -123t123 -184.5t45.5 -224t-45.5 -224t-123 -184.5t-184.5 -123t-224 -405B2F03AA0" />
<glyph unicode="&#xe024;" d="M1300 0h-538l-41 400h-242l-41 -400h-538l431 1200h209l-21 -300h162l-20 300h208zM515 800l-27 -300h224l-27 300h-170z" />
<glyph unicode="&#xe025;" d="M550 1200h200q21 0 35.5 -14.5t14.5 -35.5v-450h191q20 0 25.5 -11.5t-7.5 -27.5l-327 -400q-13 -16 -32 -0010478AB8" />
<glyph unicode="&#xe026;" d="M600 1177q117 0 224 -45.5t184.5 -123t123 -184.5t45.5 -224t-45.5 -224t-123 -184.5t-184.5 -123t-224 -405D7378ABF " />
<glyph unicode="&#xe027;" d="M600 1177q117 0 224 -45.5t184.5 -123t123 -184.5t45.5 -224t-45.5 -224t-123 -184.5t-184.5 -123t-224 -45.5t-224 45.5t-184.5 123t-123 184.5t-45.5 224t45.5 224t123 184.5t184.5 123t224 45.5zM600 1027q-116 0 -214.5 -57t-155.5 -155.5t-57 -214.5t57 -214.5 t155.5 -155.5t214.5 -57t214.5 57t155.5 155.5t57 214.5t-57 214.5t-155.5 155.5t-214.5 57zM632 914l223 -275q13 -16 8 -27.5t-26 -11.5h-137v-275q0 -10 -7.5 -17.5t-17.5 -7.5h-150q-10 0 -17.5 7.5t-7.5 17.5v275h-137q-21 0 -26 11.5t8 27.5l223 275q13 16 32 16 t32 -16z" />
<glyph unicode="&#xe028;" d="M225 1200h750q10 0 19.5 -7t12.5 -17l186 -652q7 -24 7 -49v-425q0 -12 -4 -27t-9 -17q-12 -6 -37 -6h-1100q-12 0 -27 4t-17 8q-6 13 -6 38l1 425q0 25 7 49l185 652q3 10 12.5 17t19.5 7zM878 1000h-556q-10 0 -19 -7t-11 -18l-87 -450q-2 -11 4 -18t16 -7h150 q10 0 19.5 -7t11.5 -17l38 -152q2 -10 11.5 -17t19.5 -7h250q10 0 19.5 7t11.5 17l38 152q2 10 11.5 17t19.5 7h150q10 0 16 7t4 18l-87 450q-2 11 -11 18t-19 7z" />
<glyph unicode="&#xe029;" d="M600 1177q117 0 224 -45.5t184.5 -123t123 -184.5t45.5 -224t-45.5 -224t-123 -184.5t-184.5 -123t-224 -40A29941A8F" />
<glyph unicode="&#xe030;" d="M947 1060l135 135q7 7 12.5 5t5.5 -13v-362q0 -10 -7.5 -17.5t-17.5 -7.5h-362q-11 0 -13 5.5t5 12.5l133 133q-109 76 -238 76q-116 0 -214.5 -57t-155.5 -155.5t-57 -214.5t57 -214.5t155.5 -155.5t214.5 -57t214.5 57t155.5 155.5t57 214.5h150q0 -117 -45.5 -224 t-123 -184.5t-184.5 -123t-224 -45.5t-224 45.5t-184.5 123t-123 184.5t-45.5 224t45.5 224t123 184.5t184.5 123t224 45.5q192 0 347 -117z" />
<glyph unicode="&#xe031;" d="M947 1060l135 135q7 7 12.5 5t5.5 -13v-361q0 -11 -7.5 -18.5t-18.5 -7.5h-361q-11 0 -13 5.5t5 12.5l134 04D69C6A70" />
<glyph unicode="&#xe032;" d="M125 1200h1050q10 0 17.5 -7.5t7.5 -17.5v-1150q0 -10 -7.5 -17.5t-17.5 -7.5h-1050q-10 0 -17.5 7.5t-7.50E2DBBFAA3" />
<glyph unicode="&#xe033;" d="M900 800v200q0 83 -58.5 141.5t-141.5 58.5h-300q-82 0 -141 -59t-59 -141v-200h-100q-41 0 -70.5 -29.5t-29.5 -70.5v-600q0 -41 29.5 -70.5t70.5 -29.5h900q41 0 70.5 29.5t29.5 70.5v600q0 41 -29.5 70.5t-70.5 29.5h-100zM400 800v150q0 21 15 35.5t35 14.5h200 q20 0 35 -14.5t15 -35.5v-150h-300z" />
<glyph unicode="&#xe034;" d="M125 1100h50q10 0 17.5 -7.5t7.5 -17.5v-1075h-100v1075q0 10 7.5 17.5t17.5 7.5zM1075 1052q4 0 9 -2q16 -6 16 -23v-421q0 -6 -3 -12q-33 -59 -66.5 -99t-65.5 -58t-56.5 -24.5t-52.5 -6.5q-26 0 -57.5 6.5t-52.5 13.5t-60 21q-41 15 -63 22.5t-57.5 15t-65.5 7.5 q-85 0 -160 -57q-7 -5 -15 -5q-6 0 -11 3q-14 7 -14 22v438q22 55 82 98.5t119 46.5q23 2 43 0.5t43 -7t32.5 -8.5t38 -13t32.5 -11q41 -14 63.5 -21t57 -14t63.5 -7q103 0 183 87q7 8 18 8z" />
<glyph unicode="&#xe035;" d="M600 1175q116 0 227 -49.5t192.5 -131t131 -192.5t49.5 -227v-300q0 -10 -7.5 -17.5t-17.5 -7.5h-50q-10 0 -17.5 7.5t-7.5 17.5v300q0 127 -70.5 231.5t-184.5 161.5t-245 57t-245 -57t-184.5 -161.5t-70.5 -231.5v-300q0 -10 -7.5 -17.5t-17.5 -7.5h-50 q-10 0 -17.5 7.5t-7.5 17.5v300q0 116 49.5 227t131 192.5t192.5 131t227 49.5zM220 500h160q8 0 14 -6t6 -14v-460q0 -8 -6 -14t-14 -6h-160q-8 0 -14 6t-6 14v460q0 8 6 14t14 6zM820 500h160q8 0 14 -6t6 -14v-460q0 -8 -6 -14t-14 -6h-160q-8 0 -14 6t-6 14v460 q0 8 6 14t14 6z" />
<glyph unicode="&#xe036;" d="M321 814l258 172q9 6 15 2.5t6 -13.5v-750q0 -10 -6 -13.5t-15 2.5l-258 172q-21 14 -46 14h-250q-10 0 -17.5 7.5t-7.5 17.5v350q0 10 7.5 17.5t17.5 7.5h250q25 0 46 14zM900 668l120 120q7 7 17 7t17 -7l34 -34q7 -7 7 -17t-7 -17l-120 -120l120 -120q7 -7 7 -17 t-7 -17l-34 -34q-7 -7 -17 -7t-17 7l-120 119l-120 -119q-7 -7 -17 -7t-17 7l-34 34q-7 7 -7 17t7 17l119 120l-119 120q-7 7 -7 17t7 17l34 34q7 8 17 8t17 -8z" />
<glyph unicode="&#xe037;" d="M321 814l258 172q9 6 15 2.5t6 -13.5v-750q0 -10 -6 -13.5t-15 2.5l-258 172q-21 14 -46 14h-250q-10 0 -17.5 7.5t-7.5 17.5v350q0 10 7.5 17.5t17.5 7.5h250q25 0 46 14zM766 900h4q10 -1 16 -10q96 -129 96 -290q0 -154 -90 -281q-6 -9 -17 -10l-3 -1q-9 0 -16 6 l-29 23q-7 7 -8.5 16.5t4.5 17.5q72 103 72 229q0 132 -78 238q-6 8 -4.5 18t9.5 17l29 22q7 5 15 5z" />
<glyph unicode="&#xe038;" d="M967 1004h3q11 -1 17 -10q135 -179 135 -396q0 -105 -34 -206.5t-98 -185.5q-7 -9 -17 -10h-3q-9 0 -16 6l-42 34q-8 6 -9 16t5 18q111 150 111 328q0 90 -29.5 176t-84.5 157q-6 9 -5 19t10 16l42 33q7 5 15 5zM321 814l258 172q9 6 15 2.5t6 -13.5v-750q0 -10 -6 -13.5 t-15 2.5l-258 172q-21 14 -46 14h-250q-10 0 -17.5 7.5t-7.5 17.5v350q0 10 7.5 17.5t17.5 7.5h250q25 0 46 14zM766 900h4q10 -1 16 -10q96 -129 96 -290q0 -154 -90 -281q-6 -9 -17 -10l-3 -1q-9 0 -16 6l-29 23q-7 7 -8.5 16.5t4.5 17.5q72 103 72 229q0 132 -78 238 q-6 8 -4.5 18.5t9.5 16.5l29 22q7 5 15 5z" />
<glyph unicode="&#xe039;" d="M500 900h100v-100h-100v-100h-400v-100h-100v600h500v-300zM1200 700h-200v-100h200v-200h-300v300h-200v300h-100v200h600v-500zM100 1100v-300h300v300h-300zM800 1100v-300h300v300h-300zM300 900h-100v100h100v-100zM1000 900h-100v100h100v-100zM300 500h200v-500 h-500v500h200v100h100v-100zM800 300h200v-100h-100v-100h-200v100h-100v100h100v200h-200v100h300v-300zM100 400v-300h300v300h-300zM300 200h-100v100h100v-100zM1200 200h-100v100h100v-100zM700 0h-100v100h100v-100zM1200 0h-300v100h300v-100z" />
<glyph unicode="&#xe040;" d="M100 200h-100v1000h100v-1000zM300 200h-100v1000h100v-1000zM700 200h-200v1000h200v-1000zM900 200h-100v1000h100v-1000zM1200 200h-200v1000h200v-1000zM400 0h-300v100h300v-100zM600 0h-100v91h100v-91zM800 0h-100v91h100v-91zM1100 0h-200v91h200v-91z" />
<glyph unicode="&#xe041;" d="M500 1200l682 -682q8 -8 8 -18t-8 -18l-464 -464q-8 -8 -18 -8t-18 8l-682 682l1 475q0 10 7.5 17.5t17.5 0E59C9CA96" />
<glyph unicode="&#xe042;" d="M500 1200l682 -682q8 -8 8 -18t-8 -18l-464 -464q-8 -8 -18 -8t-18 8l-682 682l1 475q0 10 7.5 17.5t17.5 01B02F1A2C" />
<glyph unicode="&#xe043;" d="M300 1200h825q75 0 75 -75v-900q0 -25 -18 -43l-64 -64q-8 -8 -13 -5.5t-5 12.5v950q0 10 -7.5 17.5t-17.5 7.5h-700q-25 0 -43 -18l-64 -64q-8 -8 -5.5 -13t12.5 -5h700q10 0 17.5 -7.5t7.5 -17.5v-950q0 -10 -7.5 -17.5t-17.5 -7.5h-850q-10 0 -17.5 7.5t-7.5 17.5v975 q0 25 18 43l139 139q18 18 43 18z" />
<glyph unicode="&#xe044;" d="M250 1200h800q21 0 35.5 -14.5t14.5 -35.5v-1150l-450 444l-450 -445v1151q0 21 14.5 35.5t35.5 14.5z" />
<glyph unicode="&#xe045;" d="M822 1200h-444q-11 0 -19 -7.5t-9 -17.5l-78 -301q-7 -24 7 -45l57 -108q6 -9 17.5 -15t21.5 -6h450q10 0 06D43C2A0F" />
<glyph unicode="&#xe046;" d="M500 1100h200q56 0 102.5 -20.5t72.5 -50t44 -59t25 -50.5l6 -20h150q41 0 70.5 -29.5t29.5 -70.5v-600q0 -41 -29.5 -70.5t-70.5 -29.5h-1000q-41 0 -70.5 29.5t-29.5 70.5v600q0 41 29.5 70.5t70.5 29.5h150q2 8 6.5 21.5t24 48t45 61t72 48t102.5 21.5zM900 800v-100 h100v100h-100zM600 730q-95 0 -162.5 -67.5t-67.5 -162.5t67.5 -162.5t162.5 -67.5t162.5 67.5t67.5 162.5t-67.5 162.5t-162.5 67.5zM600 603q43 0 73 -30t30 -73t-30 -73t-73 -30t-73 30t-30 73t30 73t73 30z" />
<glyph unicode="&#xe047;" d="M681 1199l385 -998q20 -50 60 -92q18 -19 36.5 -29.5t27.5 -11.5l10 -2v-66h-417v66q53 0 75 43.5t5 88.5l-82 222h-391q-58 -145 -92 -234q-11 -34 -6.5 -57t25.5 -37t46 -20t55 -6v-66h-365v66q56 24 84 52q12 12 25 30.5t20 31.5l7 13l399 1006h93zM416 521h340 l-162 457z" />
<glyph unicode="&#xe048;" d="M753 641q5 -1 14.5 -4.5t36 -15.5t50.5 -26.5t53.5 -40t50.5 -54.5t35.5 -70t14.5 -87q0 -67 -27.5 -125.5t-71.5 -97.5t-98.5 -66.5t-108.5 -40.5t-102 -13h-500v89q41 7 70.5 32.5t29.5 65.5v827q0 24 -0.5 34t-3.5 24t-8.5 19.5t-17 13.5t-28 12.5t-42.5 11.5v71 l471 -1q57 0 115.5 -20.5t108 -57t80.5 -94t31 -124.5q0 -51 -15.5 -96.5t-38 -74.5t-45 -50.5t-38.5 -30.5zM400 700h139q78 0 130.5 48.5t52.5 122.5q0 41 -8.5 70.5t-29.5 55.5t-62.5 39.5t-103.5 13.5h-118v-350zM400 200h216q80 0 121 50.5t41 130.5q0 90 -62.5 154.5 t-156.5 64.5h-159v-400z" />
<glyph unicode="&#xe049;" d="M877 1200l2 -57q-83 -19 -116 -45.5t-40 -66.5l-132 -839q-9 -49 13 -69t96 -26v-97h-500v97q186 16 200 98l173 832q3 17 3 30t-1.5 22.5t-9 17.5t-13.5 12.5t-21.5 10t-26 8.5t-33.5 10q-13 3 -19 5v57h425z" />
<glyph unicode="&#xe050;" d="M1300 900h-50q0 21 -4 37t-9.5 26.5t-18 17.5t-22 11t-28.5 5.5t-31 2t-37 0.5h-200v-850q0 -22 25 -34.5t50 -13.5l25 -2v-100h-400v100q4 0 11 0.5t24 3t30 7t24 15t11 24.5v850h-200q-25 0 -37 -0.5t-31 -2t-28.5 -5.5t-22 -11t-18 -17.5t-9.5 -26.5t-4 -37h-50v300 h1000v-300zM175 1000h-75v-800h75l-125 -167l-125 167h75v800h-75l125 167z" />
<glyph unicode="&#xe051;" d="M1100 900h-50q0 21 -4 37t-9.5 26.5t-18 17.5t-22 11t-28.5 5.5t-31 2t-37 0.5h-200v-650q0 -22 25 -34.5t50 -13.5l25 -2v-100h-400v100q4 0 11 0.5t24 3t30 7t24 15t11 24.5v650h-200q-25 0 -37 -0.5t-31 -2t-28.5 -5.5t-22 -11t-18 -17.5t-9.5 -26.5t-4 -37h-50v300 h1000v-300zM1167 50l-167 -125v75h-800v-75l-167 125l167 125v-75h800v75z" />
<glyph unicode="&#xe052;" d="M50 1100h600q21 0 35.5 -14.5t14.5 -35.5v-100q0 -21 -14.5 -35.5t-35.5 -14.5h-600q-21 0 -35.5 14.5t-1404FC6FBABC" />
<glyph unicode="&#xe053;" d="M250 1100h700q21 0 35.5 -14.5t14.5 -35.5v-100q0 -21 -14.5 -35.5t-35.5 -14.5h-700q-21 0 -35.5 14.5t-10E8C9E3A22" />
<glyph unicode="&#xe054;" d="M500 950v100q0 21 14.5 35.5t35.5 14.5h600q21 0 35.5 -14.5t14.5 -35.5v-100q0 -21 -14.5 -35.5t-35.5 -10313052AAE" />
<glyph unicode="&#xe055;" d="M50 1100h1100q21 0 35.5 -14.5t14.5 -35.5v-100q0 -21 -14.5 -35.5t-35.5 -14.5h-1100q-21 0 -35.5 14.5t-0F6BE07A77" />
<glyph unicode="&#xe056;" d="M50 1100h100q21 0 35.5 -14.5t14.5 -35.5v-100q0 -21 -14.5 -35.5t-35.5 -14.5h-100q-21 0 -35.5 14.5t-140BC0E4BAB1" />
<glyph unicode="&#xe057;" d="M400 0h-100v1100h100v-1100zM550 1100h100q21 0 35.5 -14.5t14.5 -35.5v-100q0 -21 -14.5 -35.5t-35.5 -140F118C9AC9" />
<glyph unicode="&#xe058;" d="M50 1100h100q21 0 35.5 -14.5t14.5 -35.5v-100q0 -21 -14.5 -35.5t-35.5 -14.5h-100q-21 0 -35.5 14.5t-1400BDC07A11" />
<glyph unicode="&#xe059;" d="M75 1000h750q31 0 53 -22t22 -53v-650q0 -31 -22 -53t-53 -22h-750q-31 0 -53 22t-22 53v650q0 31 22 53t53 22zM1200 300l-300 300l300 300v-600z" />
<glyph unicode="&#xe060;" d="M44 1100h1112q18 0 31 -13t13 -31v-1012q0 -18 -13 -31t-31 -13h-1112q-18 0 -31 13t-13 31v1012q0 18 13 31t31 13zM100 1000v-737l247 182l298 -131l-74 156l293 318l236 -288v500h-1000zM342 884q56 0 95 -39t39 -94.5t-39 -95t-95 -39.5t-95 39.5t-39 95t39 94.5 t95 39z" />
<glyph unicode="&#xe062;" d="M648 1169q117 0 216 -60t156.5 -161t57.5 -218q0 -115 -70 -258q-69 -109 -158 -225.5t-143 -179.5l-54 -60702DD7ADD" />
<glyph unicode="&#xe063;" d="M600 1177q117 0 224 -45.5t184.5 -123t123 -184.5t45.5 -224t-45.5 -224t-123 -184.5t-184.5 -123t-224 -45.5t-224 45.5t-184.5 123t-123 184.5t-45.5 224t45.5 224t123 184.5t184.5 123t224 45.5zM600 173v854q-116 0 -214.5 -57t-155.5 -155.5t-57 -214.5t57 -214.5 t155.5 -155.5t214.5 -57z" />
<glyph unicode="&#xe064;" d="M554 1295q21 -72 57.5 -143.5t76 -130t83 -118t82.5 -117t70 -116t49.5 -126t18.5 -136.5q0 -71 -25.5 -135t-68.5 -111t-99 -82t-118.5 -54t-125.5 -23q-84 5 -161.5 34t-139.5 78.5t-99 125t-37 164.5q0 69 18 136.5t49.5 126.5t69.5 116.5t81.5 117.5t83.5 119 t76.5 131t58.5 143zM344 710q-23 -33 -43.5 -70.5t-40.5 -102.5t-17 -123q1 -37 14.5 -69.5t30 -52t41 -37t38.5 -24.5t33 -15q21 -7 32 -1t13 22l6 34q2 10 -2.5 22t-13.5 19q-5 4 -14 12t-29.5 40.5t-32.5 73.5q-26 89 6 271q2 11 -6 11q-8 1 -15 -10z" />
<glyph unicode="&#xe065;" d="M1000 1013l108 115q2 1 5 2t13 2t20.5 -1t25 -9.5t28.5 -21.5q22 -22 27 -43t0 -32l-6 -10l-108 -115zM350 1100h400q50 0 105 -13l-187 -187h-368q-41 0 -70.5 -29.5t-29.5 -70.5v-500q0 -41 29.5 -70.5t70.5 -29.5h500q41 0 70.5 29.5t29.5 70.5v182l200 200v-332 q0 -165 -93.5 -257.5t-256.5 -92.5h-400q-165 0 -257.5 92.5t-92.5 257.5v400q0 165 92.5 257.5t257.5 92.5zM1009 803l-362 -362l-161 -50l55 170l355 355z" />
<glyph unicode="&#xe066;" d="M350 1100h361q-164 -146 -216 -200h-195q-41 0 -70.5 -29.5t-29.5 -70.5v-500q0 -41 29.5 -70.5t70.5 -29.06F1A85A2E" />
<glyph unicode="&#xe067;" d="M350 1100h350q60 0 127 -23l-178 -177h-349q-41 0 -70.5 -29.5t-29.5 -70.5v-500q0 -41 29.5 -70.5t70.5 -29.5h500q41 0 70.5 29.5t29.5 70.5v69l200 200v-219q0 -165 -92.5 -257.5t-257.5 -92.5h-400q-165 0 -257.5 92.5t-92.5 257.5v400q0 165 92.5 257.5t257.5 92.5z M643 639l395 395q7 7 17.5 7t17.5 -7l101 -101q7 -7 7 -17.5t-7 -17.5l-531 -532q-7 -7 -17.5 -7t-17.5 7l-248 248q-7 7 -7 17.5t7 17.5l101 101q7 7 17.5 7t17.5 -7l111 -111q8 -7 18 -7t18 7z" />
<glyph unicode="&#xe068;" d="M318 918l264 264q8 8 18 8t18 -8l260 -264q7 -8 4.5 -13t-12.5 -5h-170v-200h200v173q0 10 5 12t13 -5l26403138C5A39" />
<glyph unicode="&#xe069;" d="M250 1100h100q21 0 35.5 -14.5t14.5 -35.5v-438l464 453q15 14 25.5 10t10.5 -25v-1000q0 -21 -10.5 -25t-0B71CA1A19" />
<glyph unicode="&#xe070;" d="M50 1100h100q21 0 35.5 -14.5t14.5 -35.5v-438l464 453q15 14 25.5 10t10.5 -25v-438l464 453q15 14 25.5 00BDD0DAD8" />
<glyph unicode="&#xe071;" d="M1200 1050v-1000q0 -21 -10.5 -25t-25.5 10l-464 453v-438q0 -21 -10.5 -25t-25.5 10l-492 480q-15 14 -15 35t15 35l492 480q15 14 25.5 10t10.5 -25v-438l464 453q15 14 25.5 10t10.5 -25z" />
<glyph unicode="&#xe072;" d="M243 1074l814 -498q18 -11 18 -26t-18 -26l-814 -498q-18 -11 -30.5 -4t-12.5 28v1000q0 21 12.5 28t30.5 -4z" />
<glyph unicode="&#xe073;" d="M250 1000h200q21 0 35.5 -14.5t14.5 -35.5v-800q0 -21 -14.5 -35.5t-35.5 -14.5h-200q-21 0 -35.5 14.5t-10AD7CE7A4F" />
<glyph unicode="&#xe074;" d="M1100 950v-800q0 -21 -14.5 -35.5t-35.5 -14.5h-800q-21 0 -35.5 14.5t-14.5 35.5v800q0 21 14.5 35.5t35.5 14.5h800q21 0 35.5 -14.5t14.5 -35.5z" />
<glyph unicode="&#xe075;" d="M500 612v438q0 21 10.5 25t25.5 -10l492 -480q15 -14 15 -35t-15 -35l-492 -480q-15 -14 -25.5 -10t-10.5 25v438l-464 -453q-15 -14 -25.5 -10t-10.5 25v1000q0 21 10.5 25t25.5 -10z" />
<glyph unicode="&#xe076;" d="M1048 1102l100 1q20 0 35 -14.5t15 -35.5l5 -1000q0 -21 -14.5 -35.5t-35.5 -14.5l-100 -1q-21 0 -35.5 140783765AF1" />
<glyph unicode="&#xe077;" d="M850 1100h100q21 0 35.5 -14.5t14.5 -35.5v-1000q0 -21 -14.5 -35.5t-35.5 -14.5h-100q-21 0 -35.5 14.5t-0743F40AA1" />
<glyph unicode="&#xe078;" d="M686 1081l501 -540q15 -15 10.5 -26t-26.5 -11h-1042q-22 0 -26.5 11t10.5 26l501 540q15 15 36 15t36 -150BA09D7A9F" />
<glyph unicode="&#xe079;" d="M885 900l-352 -353l352 -353l-197 -198l-552 552l552 550z" />
<glyph unicode="&#xe080;" d="M1064 547l-551 -551l-198 198l353 353l-353 353l198 198z" />
<glyph unicode="&#xe081;" d="M600 1177q117 0 224 -45.5t184.5 -123t123 -184.5t45.5 -224t-45.5 -224t-123 -184.5t-184.5 -123t-224 -40A141A0A53" />
<glyph unicode="&#xe082;" d="M600 1177q117 0 224 -45.5t184.5 -123t123 -184.5t45.5 -224t-45.5 -224t-123 -184.5t-184.5 -123t-224 -406FCD30A45" />
<glyph unicode="&#xe083;" d="M600 1177q117 0 224 -45.5t184.5 -123t123 -184.5t45.5 -224t-45.5 -224t-123 -184.5t-184.5 -123t-224 -4095119EADD" />
<glyph unicode="&#xe084;" d="M600 1177q117 0 224 -45.5t184.5 -123t123 -184.5t45.5 -224t-45.5 -224t-123 -184.5t-184.5 -123t-224 -40054F8CA4B" />
<glyph unicode="&#xe085;" d="M600 1177q117 0 224 -45.5t184.5 -123t123 -184.5t45.5 -224t-45.5 -224t-123 -184.5t-184.5 -123t-224 -409A6C77A5F" />
<glyph unicode="&#xe086;" d="M600 1177q117 0 224 -45.5t184.5 -123t123 -184.5t45.5 -224t-45.5 -224t-123 -184.5t-184.5 -123t-224 -403A4BE6A62" />
<glyph unicode="&#xe087;" d="M525 1200h150q10 0 17.5 -7.5t7.5 -17.5v-194q103 -27 178.5 -102.5t102.5 -178.5h194q10 0 17.5 -7.5t7.5 -17.5v-150q0 -10 -7.5 -17.5t-17.5 -7.5h-194q-27 -103 -102.5 -178.5t-178.5 -102.5v-194q0 -10 -7.5 -17.5t-17.5 -7.5h-150q-10 0 -17.5 7.5t-7.5 17.5v194 q-103 27 -178.5 102.5t-102.5 178.5h-194q-10 0 -17.5 7.5t-7.5 17.5v150q0 10 7.5 17.5t17.5 7.5h194q27 103 102.5 178.5t178.5 102.5v194q0 10 7.5 17.5t17.5 7.5zM700 893v-168q0 -10 -7.5 -17.5t-17.5 -7.5h-150q-10 0 -17.5 7.5t-7.5 17.5v168q-68 -23 -119 -74 t-74 -119h168q10 0 17.5 -7.5t7.5 -17.5v-150q0 -10 -7.5 -17.5t-17.5 -7.5h-168q23 -68 74 -119t119 -74v168q0 10 7.5 17.5t17.5 7.5h150q10 0 17.5 -7.5t7.5 -17.5v-168q68 23 119 74t74 119h-168q-10 0 -17.5 7.5t-7.5 17.5v150q0 10 7.5 17.5t17.5 7.5h168 q-23 68 -74 119t-119 74z" />
<glyph unicode="&#xe088;" d="M600 1177q117 0 224 -45.5t184.5 -123t123 -184.5t45.5 -224t-45.5 -224t-123 -184.5t-184.5 -123t-224 -4066DC8CAF8" />
<glyph unicode="&#xe089;" d="M600 1177q117 0 224 -45.5t184.5 -123t123 -184.5t45.5 -224t-45.5 -224t-123 -184.5t-184.5 -123t-224 -4099052BA3C" />
<glyph unicode="&#xe090;" d="M600 1177q117 0 224 -45.5t184.5 -123t123 -184.5t45.5 -224t-45.5 -224t-123 -184.5t-184.5 -123t-224 -45.5t-224 45.5t-184.5 123t-123 184.5t-45.5 224t45.5 224t123 184.5t184.5 123t224 45.5zM600 1027q-116 0 -214.5 -57t-155.5 -155.5t-57 -214.5q0 -120 65 -225 l587 587q-105 65 -225 65zM965 819l-584 -584q104 -62 219 -62q116 0 214.5 57t155.5 155.5t57 214.5q0 115 -62 219z" />
<glyph unicode="&#xe091;" d="M39 582l522 427q16 13 27.5 8t11.5 -26v-291h550q21 0 35.5 -14.5t14.5 -35.5v-200q0 -21 -14.5 -35.5t-35.5 -14.5h-550v-291q0 -21 -11.5 -26t-27.5 8l-522 427q-16 13 -16 32t16 32z" />
<glyph unicode="&#xe092;" d="M639 1009l522 -427q16 -13 16 -32t-16 -32l-522 -427q-16 -13 -27.5 -8t-11.5 26v291h-550q-21 0 -35.5 14073D366AC1" />
<glyph unicode="&#xe093;" d="M682 1161l427 -522q13 -16 8 -27.5t-26 -11.5h-291v-550q0 -21 -14.5 -35.5t-35.5 -14.5h-200q-21 0 -35.5 14.5t-14.5 35.5v550h-291q-21 0 -26 11.5t8 27.5l427 522q13 16 32 16t32 -16z" />
<glyph unicode="&#xe094;" d="M550 1200h200q21 0 35.5 -14.5t14.5 -35.5v-550h291q21 0 26 -11.5t-8 -27.5l-427 -522q-13 -16 -32 -16t-0B4E40EA42" />
<glyph unicode="&#xe095;" d="M639 1109l522 -427q16 -13 16 -32t-16 -32l-522 -427q-16 -13 -27.5 -8t-11.5 26v291q-94 -2 -182 -20t-170EE86E5A1B" />
<glyph unicode="&#xe096;" d="M850 1200h300q21 0 35.5 -14.5t14.5 -35.5v-300q0 -21 -10.5 -25t-24.5 10l-94 94l-249 -249q-8 -7 -18 -7074013CAE6" />
<glyph unicode="&#xe097;" d="M1014 1120l106 -106q7 -8 7 -18t-7 -18l-249 -249l94 -94q14 -14 10 -24.5t-25 -10.5h-300q-21 0 -35.5 140BB6436A8C" />
<glyph unicode="&#xe101;" d="M600 1177q117 0 224 -45.5t184.5 -123t123 -184.5t45.5 -224t-45.5 -224t-123 -184.5t-184.5 -123t-224 -40F44856AAD" />
<glyph unicode="&#xe102;" d="M260 1200q9 0 19 -2t15 -4l5 -2q22 -10 44 -23l196 -118q21 -13 36 -24q29 -21 37 -12q11 13 49 35l196 118q22 13 45 23q17 7 38 7q23 0 47 -16.5t37 -33.5l13 -16q14 -21 18 -45l25 -123l8 -44q1 -9 8.5 -14.5t17.5 -5.5h61q10 0 17.5 -7.5t7.5 -17.5v-50 q0 -10 -7.5 -17.5t-17.5 -7.5h-50q-10 0 -17.5 -7.5t-7.5 -17.5v-175h-400v300h-200v-300h-400v175q0 10 -7.5 17.5t-17.5 7.5h-50q-10 0 -17.5 7.5t-7.5 17.5v50q0 10 7.5 17.5t17.5 7.5h61q11 0 18 3t7 8q0 4 9 52l25 128q5 25 19 45q2 3 5 7t13.5 15t21.5 19.5t26.5 15.5 t29.5 7zM915 1079l-166 -162q-7 -7 -5 -12t12 -5h219q10 0 15 7t2 17l-51 149q-3 10 -11 12t-15 -6zM463 917l-177 157q-8 7 -16 5t-11 -12l-51 -143q-3 -10 2 -17t15 -7h231q11 0 12.5 5t-5.5 12zM500 0h-375q-10 0 -17.5 7.5t-7.5 17.5v375h400v-400zM1100 400v-375 q0 -10 -7.5 -17.5t-17.5 -7.5h-375v400h400z" />
<glyph unicode="&#xe103;" d="M1165 1190q8 3 21 -6.5t13 -17.5q-2 -178 -24.5 -323.5t-55.5 -245.5t-87 -174.5t-102.5 -118.5t-118 -68.5t-118.5 -33t-120 -4.5t-105 9.5t-90 16.5q-61 12 -78 11q-4 1 -12.5 0t-34 -14.5t-52.5 -40.5l-153 -153q-26 -24 -37 -14.5t-11 43.5q0 64 42 102q8 8 50.5 45 t66.5 58q19 17 35 47t13 61q-9 55 -10 102.5t7 111t37 130t78 129.5q39 51 80 88t89.5 63.5t94.5 45t113.5 36t129 31t157.5 37t182 47.5zM1116 1098q-8 9 -22.5 -3t-45.5 -50q-38 -47 -119 -103.5t-142 -89.5l-62 -33q-56 -30 -102 -57t-104 -68t-102.5 -80.5t-85.5 -91 t-64 -104.5q-24 -56 -31 -86t2 -32t31.5 17.5t55.5 59.5q25 30 94 75.5t125.5 77.5t147.5 81q70 37 118.5 69t102 79.5t99 111t86.5 148.5q22 50 24 60t-6 19z" />
<glyph unicode="&#xe104;" d="M653 1231q-39 -67 -54.5 -131t-10.5 -114.5t24.5 -96.5t47.5 -80t63.5 -62.5t68.5 -46.5t65 -30q-4 7 -17.0A22B98A1C" />
<glyph unicode="&#xe105;" d="M600 1094q82 0 160.5 -22.5t140 -59t116.5 -82.5t94.5 -95t68 -95t42.5 -82.5t14 -57.5t-14 -57.5t-43 -82.5t-68.5 -95t-94.5 -95t-116.5 -82.5t-140 -59t-159.5 -22.5t-159.5 22.5t-140 59t-116.5 82.5t-94.5 95t-68.5 95t-43 82.5t-14 57.5t14 57.5t42.5 82.5t68 95 t94.5 95t116.5 82.5t140 59t160.5 22.5zM888 829q-15 15 -18 12t5 -22q25 -57 25 -119q0 -124 -88 -212t-212 -88t-212 88t-88 212q0 59 23 114q8 19 4.5 22t-17.5 -12q-70 -69 -160 -184q-13 -16 -15 -40.5t9 -42.5q22 -36 47 -71t70 -82t92.5 -81t113 -58.5t133.5 -24.5 t133.5 24t113 58.5t92.5 81.5t70 81.5t47 70.5q11 18 9 42.5t-14 41.5q-90 117 -163 189zM448 727l-35 -36q-15 -15 -19.5 -38.5t4.5 -41.5q37 -68 93 -116q16 -13 38.5 -11t36.5 17l35 34q14 15 12.5 33.5t-16.5 33.5q-44 44 -89 117q-11 18 -28 20t-32 -12z" />
<glyph unicode="&#xe106;" d="M592 0h-148l31 120q-91 20 -175.5 68.5t-143.5 106.5t-103.5 119t-66.5 110t-22 76q0 21 14 57.5t42.5 82.5t68 95t94.5 95t116.5 82.5t140 59t160.5 22.5q61 0 126 -15l32 121h148zM944 770l47 181q108 -85 176.5 -192t68.5 -159q0 -26 -19.5 -71t-59.5 -102t-93 -112 t-129 -104.5t-158 -75.5l46 173q77 49 136 117t97 131q11 18 9 42.5t-14 41.5q-54 70 -107 130zM310 824q-70 -69 -160 -184q-13 -16 -15 -40.5t9 -42.5q18 -30 39 -60t57 -70.5t74 -73t90 -61t105 -41.5l41 154q-107 18 -178.5 101.5t-71.5 193.5q0 59 23 114q8 19 4.5 22 t-17.5 -12zM448 727l-35 -36q-15 -15 -19.5 -38.5t4.5 -41.5q37 -68 93 -116q16 -13 38.5 -11t36.5 17l12 11l22 86l-3 4q-44 44 -89 117q-11 18 -28 20t-32 -12z" />
<glyph unicode="&#xe107;" d="M-90 100l642 1066q20 31 48 28.5t48 -35.5l642 -1056q21 -32 7.5 -67.5t-50.5 -35.5h-1294q-37 0 -50.5 340F9B003ABF" />
<glyph unicode="&#xe108;" d="M650 1200q62 0 106 -44t44 -106v-339l363 -325q15 -14 26 -38.5t11 -44.5v-41q0 -20 -12 -26.5t-29 5.5l-359 249v-263q100 -93 100 -113v-64q0 -21 -13 -29t-32 1l-205 128l-205 -128q-19 -9 -32 -1t-13 29v64q0 20 100 113v263l-359 -249q-17 -12 -29 -5.5t-12 26.5v41 q0 20 11 44.5t26 38.5l363 325v339q0 62 44 106t106 44z" />
<glyph unicode="&#xe109;" d="M850 1200h100q21 0 35.5 -14.5t14.5 -35.5v-50h50q21 0 35.5 -14.5t14.5 -35.5v-150h-1100v150q0 21 14.5 35.5t35.5 14.5h50v50q0 21 14.5 35.5t35.5 14.5h100q21 0 35.5 -14.5t14.5 -35.5v-50h500v50q0 21 14.5 35.5t35.5 14.5zM1100 800v-750q0 -21 -14.5 -35.5 t-35.5 -14.5h-1000q-21 0 -35.5 14.5t-14.5 35.5v750h1100zM100 600v-100h100v100h-100zM300 600v-100h100v100h-100zM500 600v-100h100v100h-100zM700 600v-100h100v100h-100zM900 600v-100h100v100h-100zM100 400v-100h100v100h-100zM300 400v-100h100v100h-100zM500 400 v-100h100v100h-100zM700 400v-100h100v100h-100zM900 400v-100h100v100h-100zM100 200v-100h100v100h-100zM300 200v-100h100v100h-100zM500 200v-100h100v100h-100zM700 200v-100h100v100h-100zM900 200v-100h100v100h-100z" />
<glyph unicode="&#xe110;" d="M1135 1165l249 -230q15 -14 15 -35t-15 -35l-249 -230q-14 -14 -24.5 -10t-10.5 25v150h-159l-600 -600h-291q-21 0 -35.5 14.5t-14.5 35.5v100q0 21 14.5 35.5t35.5 14.5h209l600 600h241v150q0 21 10.5 25t24.5 -10zM522 819l-141 -141l-122 122h-209q-21 0 -35.5 14.5 t-14.5 35.5v100q0 21 14.5 35.5t35.5 14.5h291zM1135 565l249 -230q15 -14 15 -35t-15 -35l-249 -230q-14 -14 -24.5 -10t-10.5 25v150h-241l-181 181l141 141l122 -122h159v150q0 21 10.5 25t24.5 -10z" />
<glyph unicode="&#xe111;" d="M100 1100h1000q41 0 70.5 -29.5t29.5 -70.5v-600q0 -41 -29.5 -70.5t-70.5 -29.5h-596l-304 -300v300h-100q-41 0 -70.5 29.5t-29.5 70.5v600q0 41 29.5 70.5t70.5 29.5z" />
<glyph unicode="&#xe112;" d="M150 1200h200q21 0 35.5 -14.5t14.5 -35.5v-250h-300v250q0 21 14.5 35.5t35.5 14.5zM850 1200h200q21 0 35.5 -14.5t14.5 -35.5v-250h-300v250q0 21 14.5 35.5t35.5 14.5zM1100 800v-300q0 -41 -3 -77.5t-15 -89.5t-32 -96t-58 -89t-89 -77t-129 -51t-174 -20t-174 20 t-129 51t-89 77t-58 89t-32 96t-15 89.5t-3 77.5v300h300v-250v-27v-42.5t1.5 -41t5 -38t10 -35t16.5 -30t25.5 -24.5t35 -19t46.5 -12t60 -4t60 4.5t46.5 12.5t35 19.5t25 25.5t17 30.5t10 35t5 38t2 40.5t-0.5 42v25v250h300z" />
<glyph unicode="&#xe113;" d="M1100 411l-198 -199l-353 353l-353 -353l-197 199l551 551z" />
<glyph unicode="&#xe114;" d="M1101 789l-550 -551l-551 551l198 199l353 -353l353 353z" />
<glyph unicode="&#xe115;" d="M404 1000h746q21 0 35.5 -14.5t14.5 -35.5v-551h150q21 0 25 -10.5t-10 -24.5l-230 -249q-14 -15 -35 -15t-35 15l-230 249q-14 14 -10 24.5t25 10.5h150v401h-381zM135 984l230 -249q14 -14 10 -24.5t-25 -10.5h-150v-400h385l215 -200h-750q-21 0 -35.5 14.5 t-14.5 35.5v550h-150q-21 0 -25 10.5t10 24.5l230 249q14 15 35 15t35 -15z" />
<glyph unicode="&#xe116;" d="M56 1200h94q17 0 31 -11t18 -27l38 -162h896q24 0 39 -18.5t10 -42.5l-100 -475q-5 -21 -27 -42.5t-55 -2109BB61CA11" />
<glyph unicode="&#xe117;" d="M1200 1000v-100h-1200v100h200q0 41 29.5 70.5t70.5 29.5h300q41 0 70.5 -29.5t29.5 -70.5h500zM0 800h1200v-800h-1200v800z" />
<glyph unicode="&#xe118;" d="M200 800l-200 -400v600h200q0 41 29.5 70.5t70.5 29.5h300q42 0 71 -29.5t29 -70.5h500v-200h-1000zM1500 700l-300 -700h-1200l300 700h1200z" />
<glyph unicode="&#xe119;" d="M635 1184l230 -249q14 -14 10 -24.5t-25 -10.5h-150v-601h150q21 0 25 -10.5t-10 -24.5l-230 -249q-14 -15 -35 -15t-35 15l-230 249q-14 14 -10 24.5t25 10.5h150v601h-150q-21 0 -25 10.5t10 24.5l230 249q14 15 35 15t35 -15z" />
<glyph unicode="&#xe120;" d="M936 864l249 -229q14 -15 14 -35.5t-14 -35.5l-249 -229q-15 -15 -25.5 -10.5t-10.5 24.5v151h-600v-151q00B7EAA4A54" />
<glyph unicode="&#xe121;" d="M1169 400l-172 732q-5 23 -23 45.5t-38 22.5h-672q-20 0 -38 -20t-23 -41l-172 -739h1138zM1100 300h-1000q-41 0 -70.5 -29.5t-29.5 -70.5v-100q0 -41 29.5 -70.5t70.5 -29.5h1000q41 0 70.5 29.5t29.5 70.5v100q0 41 -29.5 70.5t-70.5 29.5zM800 100v100h100v-100h-100 zM1000 100v100h100v-100h-100z" />
<glyph unicode="&#xe122;" d="M1150 1100q21 0 35.5 -14.5t14.5 -35.5v-850q0 -21 -14.5 -35.5t-35.5 -14.5t-35.5 14.5t-14.5 35.5v850q006CB56AA42" />
<glyph unicode="&#xe123;" d="M553 1200h94q20 0 29 -10.5t3 -29.5l-18 -37q83 -19 144 -82.5t76 -140.5l63 -327l118 -173h17q19 0 33 -100DB34AA8D" />
<glyph unicode="&#xe124;" d="M800 946l224 78l-78 -224l234 -45l-180 -155l180 -155l-234 -45l78 -224l-224 78l-45 -234l-155 180l-155 -180l-45 234l-224 -78l78 224l-234 45l180 155l-180 155l234 45l-78 224l224 -78l45 234l155 -180l155 180z" />
<glyph unicode="&#xe125;" d="M650 1200h50q40 0 70 -40.5t30 -84.5v-150l-28 -125h328q40 0 70 -40.5t30 -84.5v-100q0 -45 -29 -74l-23808315AAAC4" />
<glyph unicode="&#xe126;" d="M600 1100h250q23 0 45 -16.5t38 -40.5l238 -344q29 -29 29 -74v-100q0 -44 -30 -84.5t-70 -40.5h-328q28 -118 28 -125v-150q0 -44 -30 -84.5t-70 -40.5h-50q-27 0 -51.5 20t-37.5 48l-96 198l-145 196q-20 27 -20 63v400q0 39 27.5 57t72.5 18h61q124 100 139 100z M50 1000h100q21 0 35.5 -14.5t14.5 -35.5v-500q0 -21 -14.5 -35.5t-35.5 -14.5h-100q-21 0 -35.5 14.5t-14.5 35.5v500q0 21 14.5 35.5t35.5 14.5zM636 1000l-136 -100h-100v-375l150 -213l100 -212h50v175l-50 225h450v125l-250 375h-214z" />
<glyph unicode="&#xe127;" d="M356 873l363 230q31 16 53 -6l110 -112q13 -13 13.5 -32t-11.5 -34l-84 -121h302q84 0 138 -38t54 -110t-506CA06EA49" />
<glyph unicode="&#xe128;" d="M475 1103l366 -230q2 -1 6 -3.5t14 -10.5t18 -16.5t14.5 -20t6.5 -22.5v-525q0 -13 -86 -94t-93 -81h-342q0D9BEE4A87" />
<glyph unicode="&#xe129;" d="M550 1294q72 0 111 -55t39 -139v-106l339 -131q21 -6 41 -19.5t20 -28.5v-342q0 -7 -81 -90t-94 -83h-525q00747B3A42" />
<glyph unicode="&#xe130;" d="M350 1100h500q21 0 35.5 14.5t14.5 35.5v100q0 21 -14.5 35.5t-35.5 14.5h-500q-21 0 -35.5 -14.5t-14.5 -35.5v-100q0 -21 14.5 -35.5t35.5 -14.5zM600 306v-106q0 -84 -39 -139t-111 -55t-110 54t-38 138v302l-121 -84q-15 -12 -34 -11.5t-32 13.5l-112 110 q-22 22 -6 53l230 363q1 2 3.5 6t10.5 13.5t16.5 17t20 13.5t22.5 6h525q13 0 94 -83t81 -90v-342q0 -15 -20 -28.5t-41 -19.5zM308 900l-236 -339l83 -86l183 146q22 17 47 5q2 -1 4.5 -2.5t4 -4t2.5 -4t2 -5t1.5 -5t0.5 -6v-5.5v-6v-7v-456q0 -22 25 -31t50 0.5t25 30.5 v203q0 15 20 28.5t41 19.5l339 131v293l-89 100h-503z" />
<glyph unicode="&#xe131;" d="M600 1178q118 0 225 -45.5t184.5 -123t123 -184.5t45.5 -225t-45.5 -225t-123 -184.5t-184.5 -123t-225 -45.5t-225 45.5t-184.5 123t-123 184.5t-45.5 225t45.5 225t123 184.5t184.5 123t225 45.5zM914 632l-275 223q-16 13 -27.5 8t-11.5 -26v-137h-275 q-10 0 -17.5 -7.5t-7.5 -17.5v-150q0 -10 7.5 -17.5t17.5 -7.5h275v-137q0 -21 11.5 -26t27.5 8l275 223q16 13 16 32t-16 32z" />
<glyph unicode="&#xe132;" d="M600 1178q118 0 225 -45.5t184.5 -123t123 -184.5t45.5 -225t-45.5 -225t-123 -184.5t-184.5 -123t-225 -409DEF0AA15" />
<glyph unicode="&#xe133;" d="M600 1178q118 0 225 -45.5t184.5 -123t123 -184.5t45.5 -225t-45.5 -225t-123 -184.5t-184.5 -123t-225 -4057F081A3A" />
<glyph unicode="&#xe134;" d="M600 1178q118 0 225 -45.5t184.5 -123t123 -184.5t45.5 -225t-45.5 -225t-123 -184.5t-184.5 -123t-225 -40920457A8B" />
<glyph unicode="&#xe135;" d="M600 1176q116 0 222.5 -46t184 -123.5t123.5 -184t46 -222.5t-46 -222.5t-123.5 -184t-184 -123.5t-222.5 0FF3987A27" />
<glyph unicode="&#xe136;" d="M756 1157q164 92 306 -9l-259 -138l145 -232l251 126q6 -89 -34 -156.5t-117 -110.5q-60 -34 -127 -39.5t-072462AA4D" />
<glyph unicode="&#xe137;" horiz-adv-x="1220" d="M100 1196h1000q41 0 70.5 -29.5t29.5 -70.5v-100q0 -41 -29.5 -70.5t-70.5 -29.5h-1000q-41 0 -70.5 29.5t-29.5 70.5v100q0 41 29.5 70.5t70.5 29.5zM1100 1096h-200v-100h200v100zM100 796h1000q41 0 70.5 -29.5t29.5 -70.5v-100q0 -41 -29.5 -70.5t-70.5 -29.5h-1000 q-41 0 -70.5 29.5t-29.5 70.5v100q0 41 29.5 70.5t70.5 29.5zM1100 696h-500v-100h500v100zM100 396h1000q41 0 70.5 -29.5t29.5 -70.5v-100q0 -41 -29.5 -70.5t-70.5 -29.5h-1000q-41 0 -70.5 29.5t-29.5 70.5v100q0 41 29.5 70.5t70.5 29.5zM1100 296h-300v-100h300v100z " />
<glyph unicode="&#xe138;" d="M150 1200h900q21 0 35.5 -14.5t14.5 -35.5t-14.5 -35.5t-35.5 -14.5h-900q-21 0 -35.5 14.5t-14.5 35.5t14.5 35.5t35.5 14.5zM700 500v-300l-200 -200v500l-350 500h900z" />
<glyph unicode="&#xe139;" d="M500 1200h200q41 0 70.5 -29.5t29.5 -70.5v-100h300q41 0 70.5 -29.5t29.5 -70.5v-400h-500v100h-200v-100h-500v400q0 41 29.5 70.5t70.5 29.5h300v100q0 41 29.5 70.5t70.5 29.5zM500 1100v-100h200v100h-200zM1200 400v-200q0 -41 -29.5 -70.5t-70.5 -29.5h-1000 q-41 0 -70.5 29.5t-29.5 70.5v200h1200z" />
<glyph unicode="&#xe140;" d="M50 1200h300q21 0 25 -10.5t-10 -24.5l-94 -94l199 -199q7 -8 7 -18t-7 -18l-106 -106q-8 -7 -18 -7t-18 7l-199 199l-94 -94q-14 -14 -24.5 -10t-10.5 25v300q0 21 14.5 35.5t35.5 14.5zM850 1200h300q21 0 35.5 -14.5t14.5 -35.5v-300q0 -21 -10.5 -25t-24.5 10l-94 94 l-199 -199q-8 -7 -18 -7t-18 7l-106 106q-7 8 -7 18t7 18l199 199l-94 94q-14 14 -10 24.5t25 10.5zM364 470l106 -106q7 -8 7 -18t-7 -18l-199 -199l94 -94q14 -14 10 -24.5t-25 -10.5h-300q-21 0 -35.5 14.5t-14.5 35.5v300q0 21 10.5 25t24.5 -10l94 -94l199 199 q8 7 18 7t18 -7zM1071 271l94 94q14 14 24.5 10t10.5 -25v-300q0 -21 -14.5 -35.5t-35.5 -14.5h-300q-21 0 -25 10.5t10 24.5l94 94l-199 199q-7 8 -7 18t7 18l106 106q8 7 18 7t18 -7z" />
<glyph unicode="&#xe141;" d="M596 1192q121 0 231.5 -47.5t190 -127t127 -190t47.5 -231.5t-47.5 -231.5t-127 -190.5t-190 -127t-231.5 0B4EA09AD0" />
<glyph unicode="&#xe142;" d="M546 173l469 470q91 91 99 192q7 98 -52 175.5t-154 94.5q-22 4 -47 4q-34 0 -66.5 -10t-56.5 -23t-55.5 -052026BA92" />
<glyph unicode="&#xe143;" d="M649 949q48 68 109.5 104t121.5 38.5t118.5 -20t102.5 -64t71 -100.5t27 -123q0 -57 -33.5 -117.5t-94 -12019A21AA11" />
<glyph unicode="&#xe144;" d="M776.5 1214q93.5 0 159.5 -66l141 -141q66 -66 66 -160q0 -42 -28 -95.5t-62 -87.5l-29 -29q-31 53 -77 99l-18 18l95 95l-247 248l-389 -389l212 -212l-105 -106l-19 18l-141 141q-66 66 -66 159t66 159l283 283q65 66 158.5 66zM600 706l105 105q10 -8 19 -17l141 -141 q66 -66 66 -159t-66 -159l-283 -283q-66 -66 -159 -66t-159 66l-141 141q-66 66 -66 159.5t66 159.5l55 55q29 -55 75 -102l18 -17l-95 -95l247 -248l389 389z" />
<glyph unicode="&#xe145;" d="M603 1200q85 0 162 -15t127 -38t79 -48t29 -46v-953q0 -41 -29.5 -70.5t-70.5 -29.5h-600q-41 0 -70.5 29.013F2C5A71" />
<glyph unicode="&#xe146;" d="M902 1185l283 -282q15 -15 15 -36t-14.5 -35.5t-35.5 -14.5t-35 15l-36 35l-279 -267v-300l-212 210l-308 -307l-280 -203l203 280l307 308l-210 212h300l267 279l-35 36q-15 14 -15 35t14.5 35.5t35.5 14.5t35 -15z" />
<glyph unicode="&#xe148;" d="M700 1248v-78q38 -5 72.5 -14.5t75.5 -31.5t71 -53.5t52 -84t24 -118.5h-159q-4 36 -10.5 59t-21 45t-40 3092D971A02" />
<glyph unicode="&#xe149;" d="M561 1197q84 0 160.5 -40t123.5 -109.5t47 -147.5h-153q0 40 -19.5 71.5t-49.5 48.5t-59.5 26t-55.5 9q-37 0 -79 -14.5t-62 -35.5q-41 -44 -41 -101q0 -26 13.5 -63t26.5 -61t37 -66q6 -9 9 -14h241v-100h-197q8 -50 -2.5 -115t-31.5 -95q-45 -62 -99 -112 q34 10 83 17.5t71 7.5q32 1 102 -16t104 -17q83 0 136 30l50 -147q-31 -19 -58 -30.5t-55 -15.5t-42 -4.5t-46 -0.5q-23 0 -76 17t-111 32.5t-96 11.5q-39 -3 -82 -16t-67 -25l-23 -11l-55 145q4 3 16 11t15.5 10.5t13 9t15.5 12t14.5 14t17.5 18.5q48 55 54 126.5 t-30 142.5h-221v100h166q-23 47 -44 104q-7 20 -12 41.5t-6 55.5t6 66.5t29.5 70.5t58.5 71q97 88 263 88z" />
<glyph unicode="&#xe150;" d="M400 300h150q21 0 25 -11t-10 -25l-230 -250q-14 -15 -35 -15t-35 15l-230 250q-14 14 -10 25t25 11h150v900h200v-900zM935 1184l230 -249q14 -14 10 -24.5t-25 -10.5h-150v-900h-200v900h-150q-21 0 -25 10.5t10 24.5l230 249q14 15 35 15t35 -15z" />
<glyph unicode="&#xe151;" d="M1000 700h-100v100h-100v-100h-100v500h300v-500zM400 300h150q21 0 25 -11t-10 -25l-230 -250q-14 -15 -35 -15t-35 15l-230 250q-14 14 -10 25t25 11h150v900h200v-900zM801 1100v-200h100v200h-100zM1000 350l-200 -250h200v-100h-300v150l200 250h-200v100h300v-150z " />
<glyph unicode="&#xe152;" d="M400 300h150q21 0 25 -11t-10 -25l-230 -250q-14 -15 -35 -15t-35 15l-230 250q-14 14 -10 25t25 11h150v900h200v-900zM1000 1050l-200 -250h200v-100h-300v150l200 250h-200v100h300v-150zM1000 0h-100v100h-100v-100h-100v500h300v-500zM801 400v-200h100v200h-100z " />
<glyph unicode="&#xe153;" d="M400 300h150q21 0 25 -11t-10 -25l-230 -250q-14 -15 -35 -15t-35 15l-230 250q-14 14 -10 25t25 11h150v900h200v-900zM1000 700h-100v400h-100v100h200v-500zM1100 0h-100v100h-200v400h300v-500zM901 400v-200h100v200h-100z" />
<glyph unicode="&#xe154;" d="M400 300h150q21 0 25 -11t-10 -25l-230 -250q-14 -15 -35 -15t-35 15l-230 250q-14 14 -10 25t25 11h150v900h200v-900zM1100 700h-100v100h-200v400h300v-500zM901 1100v-200h100v200h-100zM1000 0h-100v400h-100v100h200v-500z" />
<glyph unicode="&#xe155;" d="M400 300h150q21 0 25 -11t-10 -25l-230 -250q-14 -15 -35 -15t-35 15l-230 250q-14 14 -10 25t25 11h150v900h200v-900zM900 1000h-200v200h200v-200zM1000 700h-300v200h300v-200zM1100 400h-400v200h400v-200zM1200 100h-500v200h500v-200z" />
<glyph unicode="&#xe156;" d="M400 300h150q21 0 25 -11t-10 -25l-230 -250q-14 -15 -35 -15t-35 15l-230 250q-14 14 -10 25t25 11h150v900h200v-900zM1200 1000h-500v200h500v-200zM1100 700h-400v200h400v-200zM1000 400h-300v200h300v-200zM900 100h-200v200h200v-200z" />
<glyph unicode="&#xe157;" d="M350 1100h400q162 0 256 -93.5t94 -256.5v-400q0 -165 -93.5 -257.5t-256.5 -92.5h-400q-165 0 -257.5 92.054F738A44" />
<glyph unicode="&#xe158;" d="M350 1100h400q165 0 257.5 -92.5t92.5 -257.5v-400q0 -165 -92.5 -257.5t-257.5 -92.5h-400q-163 0 -256.502AAF28A96" />
<glyph unicode="&#xe159;" d="M350 1100h400q163 0 256.5 -94t93.5 -256v-400q0 -165 -92.5 -257.5t-257.5 -92.5h-400q-165 0 -257.5 92.0F2FF80A8C" />
<glyph unicode="&#xe160;" d="M350 1100h400q165 0 257.5 -92.5t92.5 -257.5v-400q0 -163 -92.5 -256.5t-257.5 -93.5h-400q-163 0 -256.5 94t-93.5 256v400q0 165 92.5 257.5t257.5 92.5zM800 900h-500q-41 0 -70.5 -29.5t-29.5 -70.5v-500q0 -41 29.5 -70.5t70.5 -29.5h500q41 0 70.5 29.5t29.5 70.5 v500q0 41 -29.5 70.5t-70.5 29.5zM580 693l190 -253q12 -16 6.5 -28t-26.5 -12h-400q-21 0 -26.5 12t6.5 28l190 253q12 17 30 17t30 -17z" />
<glyph unicode="&#xe161;" d="M550 1100h400q165 0 257.5 -92.5t92.5 -257.5v-400q0 -165 -92.5 -257.5t-257.5 -92.5h-400q-21 0 -35.5 14.5t-14.5 35.5v100q0 21 14.5 35.5t35.5 14.5h450q41 0 70.5 29.5t29.5 70.5v500q0 41 -29.5 70.5t-70.5 29.5h-450q-21 0 -35.5 14.5t-14.5 35.5v100 q0 21 14.5 35.5t35.5 14.5zM338 867l324 -284q16 -14 16 -33t-16 -33l-324 -284q-16 -14 -27 -9t-11 26v150h-250q-21 0 -35.5 14.5t-14.5 35.5v200q0 21 14.5 35.5t35.5 14.5h250v150q0 21 11 26t27 -9z" />
<glyph unicode="&#xe162;" d="M793 1182l9 -9q8 -10 5 -27q-3 -11 -79 -225.5t-78 -221.5l300 1q24 0 32.5 -17.5t-5.5 -35.5q-1 0 -133.5 -155t-267 -312.5t-138.5 -162.5q-12 -15 -26 -15h-9l-9 8q-9 11 -4 32q2 9 42 123.5t79 224.5l39 110h-302q-23 0 -31 19q-10 21 6 41q75 86 209.5 237.5 t228 257t98.5 111.5q9 16 25 16h9z" />
<glyph unicode="&#xe163;" d="M350 1100h400q21 0 35.5 -14.5t14.5 -35.5v-100q0 -21 -14.5 -35.5t-35.5 -14.5h-450q-41 0 -70.5 -29.5t-29.5 -70.5v-500q0 -41 29.5 -70.5t70.5 -29.5h450q21 0 35.5 -14.5t14.5 -35.5v-100q0 -21 -14.5 -35.5t-35.5 -14.5h-400q-165 0 -257.5 92.5t-92.5 257.5v400 q0 165 92.5 257.5t257.5 92.5zM938 867l324 -284q16 -14 16 -33t-16 -33l-324 -284q-16 -14 -27 -9t-11 26v150h-250q-21 0 -35.5 14.5t-14.5 35.5v200q0 21 14.5 35.5t35.5 14.5h250v150q0 21 11 26t27 -9z" />
<glyph unicode="&#xe164;" d="M750 1200h400q21 0 35.5 -14.5t14.5 -35.5v-400q0 -21 -10.5 -25t-24.5 10l-109 109l-312 -312q-15 -15 -35.5 -15t-35.5 15l-141 141q-15 15 -15 35.5t15 35.5l312 312l-109 109q-14 14 -10 24.5t25 10.5zM456 900h-156q-41 0 -70.5 -29.5t-29.5 -70.5v-500 q0 -41 29.5 -70.5t70.5 -29.5h500q41 0 70.5 29.5t29.5 70.5v148l200 200v-298q0 -165 -93.5 -257.5t-256.5 -92.5h-400q-165 0 -257.5 92.5t-92.5 257.5v400q0 165 92.5 257.5t257.5 92.5h300z" />
<glyph unicode="&#xe165;" d="M600 1186q119 0 227.5 -46.5t187 -125t125 -187t46.5 -227.5t-46.5 -227.5t-125 -187t-187 -125t-227.5 -46.5t-227.5 46.5t-187 125t-125 187t-46.5 227.5t46.5 227.5t125 187t187 125t227.5 46.5zM600 1022q-115 0 -212 -56.5t-153.5 -153.5t-56.5 -212t56.5 -212 t153.5 -153.5t212 -56.5t212 56.5t153.5 153.5t56.5 212t-56.5 212t-153.5 153.5t-212 56.5zM600 794q80 0 137 -57t57 -137t-57 -137t-137 -57t-137 57t-57 137t57 137t137 57z" />
<glyph unicode="&#xe166;" d="M450 1200h200q21 0 35.5 -14.5t14.5 -35.5v-350h245q20 0 25 -11t-9 -26l-383 -426q-14 -15 -33.5 -15t-32.5 15l-379 426q-13 15 -8.5 26t25.5 11h250v350q0 21 14.5 35.5t35.5 14.5zM50 300h1000q21 0 35.5 -14.5t14.5 -35.5v-250h-1100v250q0 21 14.5 35.5t35.5 14.5z M900 200v-50h100v50h-100z" />
<glyph unicode="&#xe167;" d="M583 1182l378 -435q14 -15 9 -31t-26 -16h-244v-250q0 -20 -17 -35t-39 -15h-200q-20 0 -32 14.5t-12 35.5v250h-250q-20 0 -25.5 16.5t8.5 31.5l383 431q14 16 33.5 17t33.5 -14zM50 300h1000q21 0 35.5 -14.5t14.5 -35.5v-250h-1100v250q0 21 14.5 35.5t35.5 14.5z M900 200v-50h100v50h-100z" />
<glyph unicode="&#xe168;" d="M396 723l369 369q7 7 17.5 7t17.5 -7l139 -139q7 -8 7 -18.5t-7 -17.5l-525 -525q-7 -8 -17.5 -8t-17.5 8l-292 291q-7 8 -7 18t7 18l139 139q8 7 18.5 7t17.5 -7zM50 300h1000q21 0 35.5 -14.5t14.5 -35.5v-250h-1100v250q0 21 14.5 35.5t35.5 14.5zM900 200v-50h100v50 h-100z" />
<glyph unicode="&#xe169;" d="M135 1023l142 142q14 14 35 14t35 -14l77 -77l-212 -212l-77 76q-14 15 -14 36t14 35zM655 855l210 210q14 14 24.5 10t10.5 -25l-2 -599q-1 -20 -15.5 -35t-35.5 -15l-597 -1q-21 0 -25 10.5t10 24.5l208 208l-154 155l212 212zM50 300h1000q21 0 35.5 -14.5t14.5 -35.5 v-250h-1100v250q0 21 14.5 35.5t35.5 14.5zM900 200v-50h100v50h-100z" />
<glyph unicode="&#xe170;" d="M350 1200l599 -2q20 -1 35 -15.5t15 -35.5l1 -597q0 -21 -10.5 -25t-24.5 10l-208 208l-155 -154l-212 212l155 154l-210 210q-14 14 -10 24.5t25 10.5zM524 512l-76 -77q-15 -14 -36 -14t-35 14l-142 142q-14 14 -14 35t14 35l77 77zM50 300h1000q21 0 35.5 -14.5 t14.5 -35.5v-250h-1100v250q0 21 14.5 35.5t35.5 14.5zM900 200v-50h100v50h-100z" />
<glyph unicode="&#xe171;" d="M1200 103l-483 276l-314 -399v423h-399l1196 796v-1096zM483 424v-230l683 953z" />
<glyph unicode="&#xe172;" d="M1100 1000v-850q0 -21 -14.5 -35.5t-35.5 -14.5h-150v400h-700v-400h-150q-21 0 -35.5 14.5t-14.5 35.5v1000q0 20 14.5 35t35.5 15h250v-300h500v300h100zM700 1000h-100v200h100v-200z" />
<glyph unicode="&#xe173;" d="M1100 1000l-2 -149l-299 -299l-95 95q-9 9 -21.5 9t-21.5 -9l-149 -147h-312v-400h-150q-21 0 -35.5 14.5t076BA73A25" />
<glyph unicode="&#xe174;" d="M1100 1000v-269l-103 -103l-134 134q-15 15 -33.5 16.5t-34.5 -12.5l-266 -266h-329v-400h-150q-21 0 -35.5 14.5t-14.5 35.5v1000q0 20 14.5 35t35.5 15h250v-300h500v300h100zM700 1000h-100v200h100v-200zM1202 572l70 -70q15 -15 15 -35.5t-15 -35.5l-131 -131 l131 -131q15 -15 15 -35.5t-15 -35.5l-70 -70q-15 -15 -35.5 -15t-35.5 15l-131 131l-131 -131q-15 -15 -35.5 -15t-35.5 15l-70 70q-15 15 -15 35.5t15 35.5l131 131l-131 131q-15 15 -15 35.5t15 35.5l70 70q15 15 35.5 15t35.5 -15l131 -131l131 131q15 15 35.5 15 t35.5 -15z" />
<glyph unicode="&#xe175;" d="M1100 1000v-300h-350q-21 0 -35.5 -14.5t-14.5 -35.5v-150h-500v-400h-150q-21 0 -35.5 14.5t-14.5 35.5v10E61BA0ACC" />
<glyph unicode="&#xe176;" d="M1100 1000v-400l-165 165q-14 15 -35 15t-35 -15l-263 -265h-402v-400h-150q-21 0 -35.5 14.5t-14.5 35.5v1000q0 20 14.5 35t35.5 15h250v-300h500v300h100zM700 1000h-100v200h100v-200zM935 565l230 -229q14 -15 10 -25.5t-25 -10.5h-150v-250q0 -20 -14.5 -35 t-35.5 -15h-100q-21 0 -35.5 15t-14.5 35v250h-150q-21 0 -25 10.5t10 25.5l230 229q14 15 35 15t35 -15z" />
<glyph unicode="&#xe177;" d="M50 1100h1100q21 0 35.5 -14.5t14.5 -35.5v-150h-1200v150q0 21 14.5 35.5t35.5 14.5zM1200 800v-550q0 -21 -14.5 -35.5t-35.5 -14.5h-1100q-21 0 -35.5 14.5t-14.5 35.5v550h1200zM100 500v-200h400v200h-400z" />
<glyph unicode="&#xe178;" d="M935 1165l248 -230q14 -14 14 -35t-14 -35l-248 -230q-14 -14 -24.5 -10t-10.5 25v150h-400v200h400v150q0 21 10.5 25t24.5 -10zM200 800h-50q-21 0 -35.5 14.5t-14.5 35.5v100q0 21 14.5 35.5t35.5 14.5h50v-200zM400 800h-100v200h100v-200zM18 435l247 230 q14 14 24.5 10t10.5 -25v-150h400v-200h-400v-150q0 -21 -10.5 -25t-24.5 10l-247 230q-15 14 -15 35t15 35zM900 300h-100v200h100v-200zM1000 500h51q20 0 34.5 -14.5t14.5 -35.5v-100q0 -21 -14.5 -35.5t-34.5 -14.5h-51v200z" />
<glyph unicode="&#xe179;" d="M862 1073l276 116q25 18 43.5 8t18.5 -41v-1106q0 -21 -14.5 -35.5t-35.5 -14.5h-200q-21 0 -35.5 14.5t-10996126A06" />
<glyph unicode="&#xe180;" d="M1200 1100v-56q-4 0 -11 -0.5t-24 -3t-30 -7.5t-24 -15t-11 -24v-888q0 -22 25 -34.5t50 -13.5l25 -2v-56h-400v56q75 0 87.5 6.5t12.5 43.5v394h-500v-394q0 -37 12.5 -43.5t87.5 -6.5v-56h-400v56q4 0 11 0.5t24 3t30 7.5t24 15t11 24v888q0 22 -25 34.5t-50 13.5 l-25 2v56h400v-56q-75 0 -87.5 -6.5t-12.5 -43.5v-394h500v394q0 37 -12.5 43.5t-87.5 6.5v56h400z" />
<glyph unicode="&#xe181;" d="M675 1000h375q21 0 35.5 -14.5t14.5 -35.5v-150h-105l-295 -98v98l-200 200h-400l100 100h375zM100 900h300q41 0 70.5 -29.5t29.5 -70.5v-500q0 -41 -29.5 -70.5t-70.5 -29.5h-300q-41 0 -70.5 29.5t-29.5 70.5v500q0 41 29.5 70.5t70.5 29.5zM100 800v-200h300v200 h-300zM1100 535l-400 -133v163l400 133v-163zM100 500v-200h300v200h-300zM1100 398v-248q0 -21 -14.5 -35.5t-35.5 -14.5h-375l-100 -100h-375l-100 100h400l200 200h105z" />
<glyph unicode="&#xe182;" d="M17 1007l162 162q17 17 40 14t37 -22l139 -194q14 -20 11 -44.5t-20 -41.5l-119 -118q102 -142 228 -268t2022BD80A16" />
<glyph unicode="&#xe183;" d="M600 1100q92 0 175 -10.5t141.5 -27t108.5 -36.5t81.5 -40t53.5 -37t31 -27l9 -10v-200q0 -21 -14.5 -33t-34.5 -9l-202 34q-20 3 -34.5 20t-14.5 38v146q-141 24 -300 24t-300 -24v-146q0 -21 -14.5 -38t-34.5 -20l-202 -34q-20 -3 -34.5 9t-14.5 33v200q3 4 9.5 10.5 t31 26t54 37.5t80.5 39.5t109 37.5t141 26.5t175 10.5zM600 795q56 0 97 -9.5t60 -23.5t30 -28t12 -24l1 -10v-50l365 -303q14 -15 24.5 -40t10.5 -45v-212q0 -21 -14.5 -35.5t-35.5 -14.5h-1100q-21 0 -35.5 14.5t-14.5 35.5v212q0 20 10.5 45t24.5 40l365 303v50 q0 4 1 10.5t12 23t30 29t60 22.5t97 10z" />
<glyph unicode="&#xe184;" d="M1100 700l-200 -200h-600l-200 200v500h200v-200h200v200h200v-200h200v200h200v-500zM250 400h700q21 0 3099973CA48" />
<glyph unicode="&#xe185;" d="M700 1100h-100q-41 0 -70.5 -29.5t-29.5 -70.5v-1000h300v1000q0 41 -29.5 70.5t-70.5 29.5zM1100 800h-100q-41 0 -70.5 -29.5t-29.5 -70.5v-700h300v700q0 41 -29.5 70.5t-70.5 29.5zM400 0h-300v400q0 41 29.5 70.5t70.5 29.5h100q41 0 70.5 -29.5t29.5 -70.5v-400z " />
<glyph unicode="&#xe186;" d="M200 1100h700q124 0 212 -88t88 -212v-500q0 -124 -88 -212t-212 -88h-700q-124 0 -212 88t-88 212v500q0 124 88 212t212 88zM100 900v-700h900v700h-900zM500 700h-200v-100h200v-300h-300v100h200v100h-200v300h300v-100zM900 700v-300l-100 -100h-200v500h200z M700 700v-300h100v300h-100z" />
<glyph unicode="&#xe187;" d="M200 1100h700q124 0 212 -88t88 -212v-500q0 -124 -88 -212t-212 -88h-700q-124 0 -212 88t-88 212v500q0 124 88 212t212 88zM100 900v-700h900v700h-900zM500 300h-100v200h-100v-200h-100v500h100v-200h100v200h100v-500zM900 700v-300l-100 -100h-200v500h200z M700 700v-300h100v300h-100z" />
<glyph unicode="&#xe188;" d="M200 1100h700q124 0 212 -88t88 -212v-500q0 -124 -88 -212t-212 -88h-700q-124 0 -212 88t-88 212v500q0 124 88 212t212 88zM100 900v-700h900v700h-900zM500 700h-200v-300h200v-100h-300v500h300v-100zM900 700h-200v-300h200v-100h-300v500h300v-100z" />
<glyph unicode="&#xe189;" d="M200 1100h700q124 0 212 -88t88 -212v-500q0 -124 -88 -212t-212 -88h-700q-124 0 -212 88t-88 212v500q0 124 88 212t212 88zM100 900v-700h900v700h-900zM500 400l-300 150l300 150v-300zM900 550l-300 -150v300z" />
<glyph unicode="&#xe190;" d="M200 1100h700q124 0 212 -88t88 -212v-500q0 -124 -88 -212t-212 -88h-700q-124 0 -212 88t-88 212v500q0 124 88 212t212 88zM100 900v-700h900v700h-900zM900 300h-700v500h700v-500zM800 700h-130q-38 0 -66.5 -43t-28.5 -108t27 -107t68 -42h130v300zM300 700v-300 h130q41 0 68 42t27 107t-28.5 108t-66.5 43h-130z" />
<glyph unicode="&#xe191;" d="M200 1100h700q124 0 212 -88t88 -212v-500q0 -124 -88 -212t-212 -88h-700q-124 0 -212 88t-88 212v500q0 124 88 212t212 88zM100 900v-700h900v700h-900zM500 700h-200v-100h200v-300h-300v100h200v100h-200v300h300v-100zM900 300h-100v400h-100v100h200v-500z M700 300h-100v100h100v-100z" />
<glyph unicode="&#xe192;" d="M200 1100h700q124 0 212 -88t88 -212v-500q0 -124 -88 -212t-212 -88h-700q-124 0 -212 88t-88 212v500q0 124 88 212t212 88zM100 900v-700h900v700h-900zM300 700h200v-400h-300v500h100v-100zM900 300h-100v400h-100v100h200v-500zM300 600v-200h100v200h-100z M700 300h-100v100h100v-100z" />
<glyph unicode="&#xe193;" d="M200 1100h700q124 0 212 -88t88 -212v-500q0 -124 -88 -212t-212 -88h-700q-124 0 -212 88t-88 212v500q0 124 88 212t212 88zM100 900v-700h900v700h-900zM500 500l-199 -200h-100v50l199 200v150h-200v100h300v-300zM900 300h-100v400h-100v100h200v-500zM701 300h-100 v100h100v-100z" />
<glyph unicode="&#xe194;" d="M600 1191q120 0 229.5 -47t188.5 -126t126 -188.5t47 -229.5t-47 -229.5t-126 -188.5t-188.5 -126t-229.5 -47t-229.5 47t-188.5 126t-126 188.5t-47 229.5t47 229.5t126 188.5t188.5 126t229.5 47zM600 1021q-114 0 -211 -56.5t-153.5 -153.5t-56.5 -211t56.5 -211 t153.5 -153.5t211 -56.5t211 56.5t153.5 153.5t56.5 211t-56.5 211t-153.5 153.5t-211 56.5zM800 700h-300v-200h300v-100h-300l-100 100v200l100 100h300v-100z" />
<glyph unicode="&#xe195;" d="M600 1191q120 0 229.5 -47t188.5 -126t126 -188.5t47 -229.5t-47 -229.5t-126 -188.5t-188.5 -126t-229.5 -47t-229.5 47t-188.5 126t-126 188.5t-47 229.5t47 229.5t126 188.5t188.5 126t229.5 47zM600 1021q-114 0 -211 -56.5t-153.5 -153.5t-56.5 -211t56.5 -211 t153.5 -153.5t211 -56.5t211 56.5t153.5 153.5t56.5 211t-56.5 211t-153.5 153.5t-211 56.5zM800 700v-100l-50 -50l100 -100v-50h-100l-100 100h-150v-100h-100v400h300zM500 700v-100h200v100h-200z" />
<glyph unicode="&#xe197;" d="M503 1089q110 0 200.5 -59.5t134.5 -156.5q44 14 90 14q120 0 205 -86.5t85 -207t-85 -207t-205 -86.5h-120B55E86AE7" />
<glyph unicode="&#xe198;" d="M502 1089q110 0 201 -59.5t135 -156.5q43 15 89 15q121 0 206 -86.5t86 -206.5q0 -99 -60 -181t-150 -110l-378 360q-13 16 -31.5 16t-31.5 -16l-381 -365h-9q-79 0 -135.5 57.5t-56.5 136.5q0 69 43 122.5t108 67.5q-2 19 -2 38q0 100 49 184.5t133.5 134t184.5 49.5z M632 467l223 -228q13 -16 8 -27.5t-26 -11.5h-137v-275q0 -10 -7.5 -17.5t-17.5 -7.5h-150q-10 0 -17.5 7.5t-7.5 17.5v275h-137q-21 0 -26 11.5t8 27.5q199 204 223 228q19 19 31.5 19t32.5 -19z" />
<glyph unicode="&#xe199;" d="M700 100v100h400l-270 300h170l-270 300h170l-300 333l-300 -333h170l-270 -300h170l-270 -300h400v-100h-50q-21 0 -35.5 -14.5t-14.5 -35.5v-50h400v50q0 21 -14.5 35.5t-35.5 14.5h-50z" />
<glyph unicode="&#xe200;" d="M600 1179q94 0 167.5 -56.5t99.5 -145.5q89 -6 150.5 -71.5t61.5 -155.5q0 -61 -29.5 -112.5t-79.5 -82.5q0380F55AD8" />
<glyph unicode="&#xe201;" d="M1010 1010q111 -111 150.5 -260.5t0 -299t-150.5 -260.5q-83 -83 -191.5 -126.5t-218.5 -43.5t-218.5 43.5t-191.5 126.5q-111 111 -150.5 260.5t0 299t150.5 260.5q83 83 191.5 126.5t218.5 43.5t218.5 -43.5t191.5 -126.5zM476 1065q-4 0 -8 -1q-121 -34 -209.5 -122.5 t-122.5 -209.5q-4 -12 2.5 -23t18.5 -14l36 -9q3 -1 7 -1q23 0 29 22q27 96 98 166q70 71 166 98q11 3 17.5 13.5t3.5 22.5l-9 35q-3 13 -14 19q-7 4 -15 4zM512 920q-4 0 -9 -2q-80 -24 -138.5 -82.5t-82.5 -138.5q-4 -13 2 -24t19 -14l34 -9q4 -1 8 -1q22 0 28 21 q18 58 58.5 98.5t97.5 58.5q12 3 18 13.5t3 21.5l-9 35q-3 12 -14 19q-7 4 -15 4zM719.5 719.5q-49.5 49.5 -119.5 49.5t-119.5 -49.5t-49.5 -119.5t49.5 -119.5t119.5 -49.5t119.5 49.5t49.5 119.5t-49.5 119.5zM855 551q-22 0 -28 -21q-18 -58 -58.5 -98.5t-98.5 -57.5 q-11 -4 -17 -14.5t-3 -21.5l9 -35q3 -12 14 -19q7 -4 15 -4q4 0 9 2q80 24 138.5 82.5t82.5 138.5q4 13 -2.5 24t-18.5 14l-34 9q-4 1 -8 1zM1000 515q-23 0 -29 -22q-27 -96 -98 -166q-70 -71 -166 -98q-11 -3 -17.5 -13.5t-3.5 -22.5l9 -35q3 -13 14 -19q7 -4 15 -4 q4 0 8 1q121 34 209.5 122.5t122.5 209.5q4 12 -2.5 23t-18.5 14l-36 9q-3 1 -7 1z" />
<glyph unicode="&#xe202;" d="M700 800h300v-380h-180v200h-340v-200h-380v755q0 10 7.5 17.5t17.5 7.5h575v-400zM1000 900h-200v200zM700 300h162l-212 -212l-212 212h162v200h100v-200zM520 0h-395q-10 0 -17.5 7.5t-7.5 17.5v395zM1000 220v-195q0 -10 -7.5 -17.5t-17.5 -7.5h-195z" />
<glyph unicode="&#xe203;" d="M700 800h300v-520l-350 350l-550 -550v1095q0 10 7.5 17.5t17.5 7.5h575v-400zM1000 900h-200v200zM862 200h-162v-200h-100v200h-162l212 212zM480 0h-355q-10 0 -17.5 7.5t-7.5 17.5v55h380v-80zM1000 80v-55q0 -10 -7.5 -17.5t-17.5 -7.5h-155v80h180z" />
<glyph unicode="&#xe204;" d="M1162 800h-162v-200h100l100 -100h-300v300h-162l212 212zM200 800h200q27 0 40 -2t29.5 -10.5t23.5 -30t7 -57.5h300v-100h-600l-200 -350v450h100q0 36 7 57.5t23.5 30t29.5 10.5t40 2zM800 400h240l-240 -400h-800l300 500h500v-100z" />
<glyph unicode="&#xe205;" d="M650 1100h100q21 0 35.5 -14.5t14.5 -35.5v-50h50q21 0 35.5 -14.5t14.5 -35.5v-100q0 -21 -14.5 -35.5t-35.5 -14.5h-300q-21 0 -35.5 14.5t-14.5 35.5v100q0 21 14.5 35.5t35.5 14.5h50v50q0 21 14.5 35.5t35.5 14.5zM1000 850v150q41 0 70.5 -29.5t29.5 -70.5v-800 q0 -41 -29.5 -70.5t-70.5 -29.5h-600q-1 0 -20 4l246 246l-326 326v324q0 41 29.5 70.5t70.5 29.5v-150q0 -62 44 -106t106 -44h300q62 0 106 44t44 106zM412 250l-212 -212v162h-200v100h200v162z" />
<glyph unicode="&#xe206;" d="M450 1100h100q21 0 35.5 -14.5t14.5 -35.5v-50h50q21 0 35.5 -14.5t14.5 -35.5v-100q0 -21 -14.5 -35.5t-35.5 -14.5h-300q-21 0 -35.5 14.5t-14.5 35.5v100q0 21 14.5 35.5t35.5 14.5h50v50q0 21 14.5 35.5t35.5 14.5zM800 850v150q41 0 70.5 -29.5t29.5 -70.5v-500 h-200v-300h200q0 -36 -7 -57.5t-23.5 -30t-29.5 -10.5t-40 -2h-600q-41 0 -70.5 29.5t-29.5 70.5v800q0 41 29.5 70.5t70.5 29.5v-150q0 -62 44 -106t106 -44h300q62 0 106 44t44 106zM1212 250l-212 -212v162h-200v100h200v162z" />
<glyph unicode="&#xe209;" d="M658 1197l637 -1104q23 -38 7 -65.5t-60 -27.5h-1276q-44 0 -60 27.5t7 65.5l637 1104q22 39 54 39t54 -39zM704 800h-208q-20 0 -32 -14.5t-8 -34.5l58 -302q4 -20 21.5 -34.5t37.5 -14.5h54q20 0 37.5 14.5t21.5 34.5l58 302q4 20 -8 34.5t-32 14.5zM500 300v-100h200 v100h-200z" />
<glyph unicode="&#xe210;" d="M425 1100h250q10 0 17.5 -7.5t7.5 -17.5v-150q0 -10 -7.5 -17.5t-17.5 -7.5h-250q-10 0 -17.5 7.5t-7.5 1700DE411A12" />
<glyph unicode="&#xe211;" d="M700 1200h100v-200h-100v-100h350q62 0 86.5 -39.5t-3.5 -94.5l-66 -132q-41 -83 -81 -134h-772q-40 51 -80CED62DA92" />
<glyph unicode="&#xe212;" d="M600 1300q40 0 68.5 -29.5t28.5 -70.5h-194q0 41 28.5 70.5t68.5 29.5zM443 1100h314q18 -37 18 -75q0 -8 05B54ACA48" />
<glyph unicode="&#xe213;" d="M600 1181q75 0 128 -53t53 -128t-53 -128t-128 -53t-128 53t-53 128t53 128t128 53zM602 798h46q34 0 55.50A2B60CA44" />
<glyph unicode="&#xe214;" d="M600 1300q47 0 92.5 -53.5t71 -123t25.5 -123.5q0 -78 -55.5 -133.5t-133.5 -55.5t-133.5 55.5t-55.5 133.0E4DC8DA09" />
<glyph unicode="&#xe215;" d="M600 1200l300 -161v-139h-300q0 -57 18.5 -108t50 -91.5t63 -72t70 -67.5t57.5 -61h-530q-60 83 -90.5 177027DA68AA9" />
<glyph unicode="&#xe216;" d="M600 1300q41 0 70.5 -29.5t29.5 -70.5v-78q46 -26 73 -72t27 -100v-50h-400v50q0 54 27 100t73 72v78q0 4107A40A9AB2" />
<glyph unicode="&#xe218;" d="M150 1100h900q21 0 35.5 -14.5t14.5 -35.5v-500q0 -21 -14.5 -35.5t-35.5 -14.5h-900q-21 0 -35.5 14.5t-14.5 35.5v500q0 21 14.5 35.5t35.5 14.5zM125 400h950q10 0 17.5 -7.5t7.5 -17.5v-50q0 -10 -7.5 -17.5t-17.5 -7.5h-283l224 -224q13 -13 13 -31.5t-13 -32 t-31.5 -13.5t-31.5 13l-88 88h-524l-87 -88q-13 -13 -32 -13t-32 13.5t-13 32t13 31.5l224 224h-289q-10 0 -17.5 7.5t-7.5 17.5v50q0 10 7.5 17.5t17.5 7.5zM541 300l-100 -100h324l-100 100h-124z" />
<glyph unicode="&#xe219;" d="M200 1100h800q83 0 141.5 -58.5t58.5 -141.5v-200h-100q0 41 -29.5 70.5t-70.5 29.5h-250q-41 0 -70.5 -29.5t-29.5 -70.5h-100q0 41 -29.5 70.5t-70.5 29.5h-250q-41 0 -70.5 -29.5t-29.5 -70.5h-100v200q0 83 58.5 141.5t141.5 58.5zM100 600h1000q41 0 70.5 -29.5 t29.5 -70.5v-300h-1200v300q0 41 29.5 70.5t70.5 29.5zM300 100v-50q0 -21 -14.5 -35.5t-35.5 -14.5h-100q-21 0 -35.5 14.5t-14.5 35.5v50h200zM1100 100v-50q0 -21 -14.5 -35.5t-35.5 -14.5h-100q-21 0 -35.5 14.5t-14.5 35.5v50h200z" />
<glyph unicode="&#xe221;" d="M480 1165l682 -683q31 -31 31 -75.5t-31 -75.5l-131 -131h-481l-517 518q-32 31 -32 75.5t32 75.5l295 2960827DE7AE2" />
<glyph unicode="&#xe223;" d="M1057 647l-189 506q-8 19 -27.5 33t-40.5 14h-400q-21 0 -40.5 -14t-27.5 -33l-189 -506q-8 -19 1.5 -33t30.5 -14h625v-150q0 -21 14.5 -35.5t35.5 -14.5t35.5 14.5t14.5 35.5v150h125q21 0 30.5 14t1.5 33zM897 0h-595v50q0 21 14.5 35.5t35.5 14.5h50v50 q0 21 14.5 35.5t35.5 14.5h48v300h200v-300h47q21 0 35.5 -14.5t14.5 -35.5v-50h50q21 0 35.5 -14.5t14.5 -35.5v-50z" />
<glyph unicode="&#xe224;" d="M900 800h300v-575q0 -10 -7.5 -17.5t-17.5 -7.5h-375v591l-300 300v84q0 10 7.5 17.5t17.5 7.5h375v-400zM1200 900h-200v200zM400 600h300v-575q0 -10 -7.5 -17.5t-17.5 -7.5h-650q-10 0 -17.5 7.5t-7.5 17.5v950q0 10 7.5 17.5t17.5 7.5h375v-400zM700 700h-200v200z " />
<glyph unicode="&#xe225;" d="M484 1095h195q75 0 146 -32.5t124 -86t89.5 -122.5t48.5 -142q18 -14 35 -20q31 -10 64.5 6.5t43.5 48.5q10CCC366AE5" />
<glyph unicode="&#xe226;" d="M641 900l423 247q19 8 42 2.5t37 -21.5l32 -38q14 -15 12.5 -36t-17.5 -34l-139 -120h-390zM50 1100h106q67 0 103 -17t66 -71l102 -212h823q21 0 35.5 -14.5t14.5 -35.5v-50q0 -21 -14 -40t-33 -26l-737 -132q-23 -4 -40 6t-26 25q-42 67 -100 67h-300q-62 0 -106 44 t-44 106v200q0 62 44 106t106 44zM173 928h-80q-19 0 -28 -14t-9 -35v-56q0 -51 42 -51h134q16 0 21.5 8t5.5 24q0 11 -16 45t-27 51q-18 28 -43 28zM550 727q-32 0 -54.5 -22.5t-22.5 -54.5t22.5 -54.5t54.5 -22.5t54.5 22.5t22.5 54.5t-22.5 54.5t-54.5 22.5zM130 389 l152 130q18 19 34 24t31 -3.5t24.5 -17.5t25.5 -28q28 -35 50.5 -51t48.5 -13l63 5l48 -179q13 -61 -3.5 -97.5t-67.5 -79.5l-80 -69q-47 -40 -109 -35.5t-103 51.5l-130 151q-40 47 -35.5 109.5t51.5 102.5zM380 377l-102 -88q-31 -27 2 -65l37 -43q13 -15 27.5 -19.5 t31.5 6.5l61 53q19 16 14 49q-2 20 -12 56t-17 45q-11 12 -19 14t-23 -8z" />
<glyph unicode="&#xe227;" d="M625 1200h150q10 0 17.5 -7.5t7.5 -17.5v-109q79 -33 131 -87.5t53 -128.5q1 -46 -15 -84.5t-39 -61t-46 -38t-39 -21.5l-17 -6q6 0 15 -1.5t35 -9t50 -17.5t53 -30t50 -45t35.5 -64t14.5 -84q0 -59 -11.5 -105.5t-28.5 -76.5t-44 -51t-49.5 -31.5t-54.5 -16t-49.5 -6.5 t-43.5 -1v-75q0 -10 -7.5 -17.5t-17.5 -7.5h-150q-10 0 -17.5 7.5t-7.5 17.5v75h-100v-75q0 -10 -7.5 -17.5t-17.5 -7.5h-150q-10 0 -17.5 7.5t-7.5 17.5v75h-175q-10 0 -17.5 7.5t-7.5 17.5v150q0 10 7.5 17.5t17.5 7.5h75v600h-75q-10 0 -17.5 7.5t-7.5 17.5v150 q0 10 7.5 17.5t17.5 7.5h175v75q0 10 7.5 17.5t17.5 7.5h150q10 0 17.5 -7.5t7.5 -17.5v-75h100v75q0 10 7.5 17.5t17.5 7.5zM400 900v-200h263q28 0 48.5 10.5t30 25t15 29t5.5 25.5l1 10q0 4 -0.5 11t-6 24t-15 30t-30 24t-48.5 11h-263zM400 500v-200h363q28 0 48.5 10.5 t30 25t15 29t5.5 25.5l1 10q0 4 -0.5 11t-6 24t-15 30t-30 24t-48.5 11h-363z" />
<glyph unicode="&#xe230;" d="M212 1198h780q86 0 147 -61t61 -147v-416q0 -51 -18 -142.5t-36 -157.5l-18 -66q-29 -87 -93.5 -146.5t-146.5 -59.5h-572q-82 0 -147 59t-93 147q-8 28 -20 73t-32 143.5t-20 149.5v416q0 86 61 147t147 61zM600 1045q-70 0 -132.5 -11.5t-105.5 -30.5t-78.5 -41.5 t-57 -45t-36 -41t-20.5 -30.5l-6 -12l156 -243h560l156 243q-2 5 -6 12.5t-20 29.5t-36.5 42t-57 44.5t-79 42t-105 29.5t-132.5 12zM762 703h-157l195 261z" />
<glyph unicode="&#xe231;" d="M475 1300h150q103 0 189 -86t86 -189v-500q0 -41 -42 -83t-83 -42h-450q-41 0 -83 42t-42 83v500q0 103 86 189t189 86zM700 300v-225q0 -21 -27 -48t-48 -27h-150q-21 0 -48 27t-27 48v225h300z" />
<glyph unicode="&#xe232;" d="M475 1300h96q0 -150 89.5 -239.5t239.5 -89.5v-446q0 -41 -42 -83t-83 -42h-450q-41 0 -83 42t-42 83v500q0 103 86 189t189 86zM700 300v-225q0 -21 -27 -48t-48 -27h-150q-21 0 -48 27t-27 48v225h300z" />
<glyph unicode="&#xe233;" d="M1294 767l-638 -283l-378 170l-78 -60v-224l100 -150v-199l-150 148l-150 -149v200l100 150v250q0 4 -0.5 10.5t0 9.5t1 8t3 8t6.5 6l47 40l-147 65l642 283zM1000 380l-350 -166l-350 166v147l350 -165l350 165v-147z" />
<glyph unicode="&#xe234;" d="M250 800q62 0 106 -44t44 -106t-44 -106t-106 -44t-106 44t-44 106t44 106t106 44zM650 800q62 0 106 -44t44 -106t-44 -106t-106 -44t-106 44t-44 106t44 106t106 44zM1050 800q62 0 106 -44t44 -106t-44 -106t-106 -44t-106 44t-44 106t44 106t106 44z" />
<glyph unicode="&#xe235;" d="M550 1100q62 0 106 -44t44 -106t-44 -106t-106 -44t-106 44t-44 106t44 106t106 44zM550 700q62 0 106 -44t44 -106t-44 -106t-106 -44t-106 44t-44 106t44 106t106 44zM550 300q62 0 106 -44t44 -106t-44 -106t-106 -44t-106 44t-44 106t44 106t106 44z" />
<glyph unicode="&#xe236;" d="M125 1100h950q10 0 17.5 -7.5t7.5 -17.5v-150q0 -10 -7.5 -17.5t-17.5 -7.5h-950q-10 0 -17.5 7.5t-7.5 170D9066BAB1" />
<glyph unicode="&#xe237;" d="M350 1200h500q162 0 256 -93.5t94 -256.5v-500q0 -165 -93.5 -257.5t-256.5 -92.5h-500q-165 0 -257.5 92.5t-92.5 257.5v500q0 165 92.5 257.5t257.5 92.5zM900 1000h-600q-41 0 -70.5 -29.5t-29.5 -70.5v-600q0 -41 29.5 -70.5t70.5 -29.5h600q41 0 70.5 29.5 t29.5 70.5v600q0 41 -29.5 70.5t-70.5 29.5zM350 900h500q21 0 35.5 -14.5t14.5 -35.5v-300q0 -21 -14.5 -35.5t-35.5 -14.5h-500q-21 0 -35.5 14.5t-14.5 35.5v300q0 21 14.5 35.5t35.5 14.5zM400 800v-200h400v200h-400z" />
<glyph unicode="&#xe238;" d="M150 1100h1000q21 0 35.5 -14.5t14.5 -35.5t-14.5 -35.5t-35.5 -14.5h-50v-200h50q21 0 35.5 -14.5t14.5 -06AC29CAE2" />
<glyph unicode="&#xe239;" d="M650 1187q87 -67 118.5 -156t0 -178t-118.5 -155q-87 66 -118.5 155t0 178t118.5 156zM300 800q124 0 212 -88t88 -212q-124 0 -212 88t-88 212zM1000 800q0 -124 -88 -212t-212 -88q0 124 88 212t212 88zM300 500q124 0 212 -88t88 -212q-124 0 -212 88t-88 212z M1000 500q0 -124 -88 -212t-212 -88q0 124 88 212t212 88zM700 199v-144q0 -21 -14.5 -35.5t-35.5 -14.5t-35.5 14.5t-14.5 35.5v142q40 -4 43 -4q17 0 57 6z" />
<glyph unicode="&#xe240;" d="M745 878l69 19q25 6 45 -12l298 -295q11 -11 15 -26.5t-2 -30.5q-5 -14 -18 -23.5t-28 -9.5h-8q1 0 1 -13q0A47810ABB" />
<glyph unicode="&#xe241;" d="M1200 900h-50q0 21 -4 37t-9.5 26.5t-18 17.5t-22 11t-28.5 5.5t-31 2t-37 0.5h-200v-850q0 -22 25 -34.5t50 -13.5l25 -2v-100h-400v100q4 0 11 0.5t24 3t30 7t24 15t11 24.5v850h-200q-25 0 -37 -0.5t-31 -2t-28.5 -5.5t-22 -11t-18 -17.5t-9.5 -26.5t-4 -37h-50v300 h1000v-300zM500 450h-25q0 15 -4 24.5t-9 14.5t-17 7.5t-20 3t-25 0.5h-100v-425q0 -11 12.5 -17.5t25.5 -7.5h12v-50h-200v50q50 0 50 25v425h-100q-17 0 -25 -0.5t-20 -3t-17 -7.5t-9 -14.5t-4 -24.5h-25v150h500v-150z" />
<glyph unicode="&#xe242;" d="M1000 300v50q-25 0 -55 32q-14 14 -25 31t-16 27l-4 11l-289 747h-69l-300 -754q-18 -35 -39 -56q-9 -9 -20645C75AB7" />
<glyph unicode="&#xe243;" d="M50 1200h1100q21 0 35.5 -14.5t14.5 -35.5v-1100q0 -21 -14.5 -35.5t-35.5 -14.5h-1100q-21 0 -35.5 14.5t-14.5 35.5v1100q0 21 14.5 35.5t35.5 14.5zM611 1118h-70q-13 0 -18 -12l-299 -753q-17 -32 -35 -51q-18 -18 -56 -34q-12 -5 -12 -18v-50q0 -8 5.5 -14t14.5 -6 h273q8 0 14 6t6 14v50q0 8 -6 14t-14 6q-55 0 -71 23q-10 14 0 39l63 163h266l57 -153q11 -31 -6 -55q-12 -17 -36 -17q-8 0 -14 -6t-6 -14v-50q0 -8 6 -14t14 -6h313q8 0 14 6t6 14v50q0 7 -5.5 13t-13.5 7q-17 0 -42 25q-25 27 -40 63h-1l-288 748q-5 12 -19 12zM639 611 h-197l103 264z" />
<glyph unicode="&#xe244;" d="M1200 1100h-1200v100h1200v-100zM50 1000h400q21 0 35.5 -14.5t14.5 -35.5v-900q0 -21 -14.5 -35.5t-35.5 -14.5h-400q-21 0 -35.5 14.5t-14.5 35.5v900q0 21 14.5 35.5t35.5 14.5zM650 1000h400q21 0 35.5 -14.5t14.5 -35.5v-400q0 -21 -14.5 -35.5t-35.5 -14.5h-400 q-21 0 -35.5 14.5t-14.5 35.5v400q0 21 14.5 35.5t35.5 14.5zM700 900v-300h300v300h-300z" />
<glyph unicode="&#xe245;" d="M50 1200h400q21 0 35.5 -14.5t14.5 -35.5v-900q0 -21 -14.5 -35.5t-35.5 -14.5h-400q-21 0 -35.5 14.5t-14.5 35.5v900q0 21 14.5 35.5t35.5 14.5zM650 700h400q21 0 35.5 -14.5t14.5 -35.5v-400q0 -21 -14.5 -35.5t-35.5 -14.5h-400q-21 0 -35.5 14.5t-14.5 35.5v400 q0 21 14.5 35.5t35.5 14.5zM700 600v-300h300v300h-300zM1200 0h-1200v100h1200v-100z" />
<glyph unicode="&#xe246;" d="M50 1000h400q21 0 35.5 -14.5t14.5 -35.5v-350h100v150q0 21 14.5 35.5t35.5 14.5h400q21 0 35.5 -14.5t14.5 -35.5v-150h100v-100h-100v-150q0 -21 -14.5 -35.5t-35.5 -14.5h-400q-21 0 -35.5 14.5t-14.5 35.5v150h-100v-350q0 -21 -14.5 -35.5t-35.5 -14.5h-400 q-21 0 -35.5 14.5t-14.5 35.5v800q0 21 14.5 35.5t35.5 14.5zM700 700v-300h300v300h-300z" />
<glyph unicode="&#xe247;" d="M100 0h-100v1200h100v-1200zM250 1100h400q21 0 35.5 -14.5t14.5 -35.5v-400q0 -21 -14.5 -35.5t-35.5 -1402FE020A8D" />
<glyph unicode="&#xe248;" d="M600 1100h150q21 0 35.5 -14.5t14.5 -35.5v-400q0 -21 -14.5 -35.5t-35.5 -14.5h-150v-100h450q21 0 35.5 -14.5t14.5 -35.5v-400q0 -21 -14.5 -35.5t-35.5 -14.5h-900q-21 0 -35.5 14.5t-14.5 35.5v400q0 21 14.5 35.5t35.5 14.5h350v100h-150q-21 0 -35.5 14.5 t-14.5 35.5v400q0 21 14.5 35.5t35.5 14.5h150v100h100v-100zM400 1000v-300h300v300h-300z" />
<glyph unicode="&#xe249;" d="M1200 0h-100v1200h100v-1200zM550 1100h400q21 0 35.5 -14.5t14.5 -35.5v-400q0 -21 -14.5 -35.5t-35.5 -10E36763A92" />
<glyph unicode="&#xe250;" d="M865 565l-494 -494q-23 -23 -41 -23q-14 0 -22 13.5t-8 38.5v1000q0 25 8 38.5t22 13.5q18 0 41 -23l494 -494q14 -14 14 -35t-14 -35z" />
<glyph unicode="&#xe251;" d="M335 635l494 494q29 29 50 20.5t21 -49.5v-1000q0 -41 -21 -49.5t-50 20.5l-494 494q-14 14 -14 35t14 35z" />
<glyph unicode="&#xe252;" d="M100 900h1000q41 0 49.5 -21t-20.5 -50l-494 -494q-14 -14 -35 -14t-35 14l-494 494q-29 29 -20.5 50t49.5 21z" />
<glyph unicode="&#xe253;" d="M635 865l494 -494q29 -29 20.5 -50t-49.5 -21h-1000q-41 0 -49.5 21t20.5 50l494 494q14 14 35 14t35 -14z" />
<glyph unicode="&#xe254;" d="M700 741v-182l-692 -323v221l413 193l-413 193v221zM1200 0h-800v200h800v-200z" />
<glyph unicode="&#xe255;" d="M1200 900h-200v-100h200v-100h-300v300h200v100h-200v100h300v-300zM0 700h50q0 21 4 37t9.5 26.5t18 17.5t22 11t28.5 5.5t31 2t37 0.5h100v-550q0 -22 -25 -34.5t-50 -13.5l-25 -2v-100h400v100q-4 0 -11 0.5t-24 3t-30 7t-24 15t-11 24.5v550h100q25 0 37 -0.5t31 -2 t28.5 -5.5t22 -11t18 -17.5t9.5 -26.5t4 -37h50v300h-800v-300z" />
<glyph unicode="&#xe256;" d="M800 700h-50q0 21 -4 37t-9.5 26.5t-18 17.5t-22 11t-28.5 5.5t-31 2t-37 0.5h-100v-550q0 -22 25 -34.5t50 -14.5l25 -1v-100h-400v100q4 0 11 0.5t24 3t30 7t24 15t11 24.5v550h-100q-25 0 -37 -0.5t-31 -2t-28.5 -5.5t-22 -11t-18 -17.5t-9.5 -26.5t-4 -37h-50v300 h800v-300zM1100 200h-200v-100h200v-100h-300v300h200v100h-200v100h300v-300z" />
<glyph unicode="&#xe257;" d="M701 1098h160q16 0 21 -11t-7 -23l-464 -464l464 -464q12 -12 7 -23t-21 -11h-160q-13 0 -23 9l-471 471q-7 8 -7 18t7 18l471 471q10 9 23 9z" />
<glyph unicode="&#xe258;" d="M339 1098h160q13 0 23 -9l471 -471q7 -8 7 -18t-7 -18l-471 -471q-10 -9 -23 -9h-160q-16 0 -21 11t7 23l464 464l-464 464q-12 12 -7 23t21 11z" />
<glyph unicode="&#xe259;" d="M1087 882q11 -5 11 -21v-160q0 -13 -9 -23l-471 -471q-8 -7 -18 -7t-18 7l-471 471q-9 10 -9 23v160q0 16 11 21t23 -7l464 -464l464 464q12 12 23 7z" />
<glyph unicode="&#xe260;" d="M618 993l471 -471q9 -10 9 -23v-160q0 -16 -11 -21t-23 7l-464 464l-464 -464q-12 -12 -23 -7t-11 21v160q0 13 9 23l471 471q8 7 18 7t18 -7z" />
<glyph unicode="&#xf8ff;" d="M1000 1200q0 -124 -88 -212t-212 -88q0 124 88 212t212 88zM450 1000h100q21 0 40 -14t26 -33l79 -194q5 10C03C83A3F" />
<glyph unicode="&#x1f511;" d="M250 1200h600q21 0 35.5 -14.5t14.5 -35.5v-400q0 -21 -14.5 -35.5t-35.5 -14.5h-150v-500l-255 -178q-19 -9 -32 -1t-13 29v650h-150q-21 0 -35.5 14.5t-14.5 35.5v400q0 21 14.5 35.5t35.5 14.5zM400 1100v-100h300v100h-300z" />
<glyph unicode="&#x1f6aa;" d="M250 1200h750q39 0 69.5 -40.5t30.5 -84.5v-933l-700 -117v950l600 125h-700v-1000h-100v1025q0 23 15.5 49t34.5 26zM500 525v-100l100 20v100z" />
</font>
</defs>
</svg>
